<svg xmlns="http://www.w3.org/2000/svg">
<defs>
<font id="PTSans-Narrow" horiz-adv-x="450" >
  <font-face 
    font-family="PT Sans Narrow"
    font-weight="400"
    font-stretch="condensed"
    units-per-em="1000"
    panose-1="2 11 5 6 2 2 3 2 2 4"
    ascent="800"
    descent="-200"
    x-height="500"
    cap-height="700"
    bbox="-394 -245.002 905 993"
    underline-thickness="50"
    underline-position="-50"
    unicode-range="U+0020-U+FB02"
  />
<missing-glyph horiz-adv-x="750" 
d="M50 700h650v-700h-650v700zM570 620l-195 -217l-195 217l-50 -50l197 -220l-197 -220l50 -50l195 217l195 -217l50 50l-198 220l198 220zM129 27h8v12h4c4 0 7.66699 0.833008 11 2.5s5 4.83398 5 9.50098c0 5.33301 -1.83301 8.66602 -5.5 9.99902s-7.5 2 -11.5 2h-11
v-36zM141 57c5.33301 0 8.00098 -1.66797 8.00098 -5.00098s-0.833008 -5.16602 -2.5 -5.49902s-3.83398 -0.5 -6.50098 -0.5h-3v11h4zM189.001 62.999h-31v-6h12v-30h7v30h12v6zM222.001 36.999c0 -2.66699 -2.33301 -4.00098 -7 -4.00098s-7.66699 0.666992 -9 2l-3 -7
c1.33301 0 3 -0.333008 5 -1s4.66699 -1 8 -1c9.33301 0 14 4 14 12c0 6 -3 9.33301 -9 10s-9 2.66699 -9 6c0 2 2 3 6 3c3.33301 0 6.33301 -0.666992 9 -2l2 7c-4 1.33301 -7.66699 2 -11 2c-9.33301 0 -14 -3.66699 -14 -11c0 -3.33301 1 -5.66602 3 -6.99902
s4 -2.5 6 -3.5s4 -1.83301 6 -2.5s3 -1.66699 3 -3zM237.001 46.998c2.66699 1.33301 5.66699 2.00195 9 2.00195s5 -1.33301 5 -4v-2c-0.666992 0 -1.33398 0.166992 -2.00098 0.5s-1.66699 0.5 -3 0.5c-8 0 -12 -3.33301 -12 -10c0 -5.33301 2.66699 -8 8 -8
c4 0 7 1.66699 9 5l2 -4h6c-0.666992 1.33301 -1 3.66602 -1 6.99902v11c0 6.66699 -3.33301 10 -10 10c-2.66699 0 -5.16699 -0.333008 -7.5 -1s-4.16602 -1.33398 -5.49902 -2.00098zM245.001 32c-2.66699 0 -4.00098 1.33301 -4.00098 4s1.66699 4 5 4
c1.33301 0 2.33301 -0.166992 3 -0.5s1.33398 -0.5 2.00098 -0.5v-3c-1.33301 -2.66699 -3.33301 -4 -6 -4zM292 27v16c0 8 -3 12 -9 12c-4.66699 0 -8 -1.66699 -10 -5l-2 4h-5v-27h7v17c1.33301 2.66699 3.33301 4 6 4c3.33301 0 5 -2 5 -6v-15h8zM297 28

<glyph glyph-name="fi" unicode="fi" horiz-adv-x="437" 
d="M376 500l0.000976562 -500.001h-72v435h-155v-435h-72v435h-61v65h61v28c0 62.667 12.667 108.167 38 136.5s62.333 42.5 111 42.5c32.667 0 61.167 -3.16699 85.5 -9.5s44.166 -13.5 59.499 -21.5l-23 -60c-16 9.33301 -33.833 16 -53.5 20s-40.167 6 -61.5 6
c-18.667 0 -33.5 -3.16699 -44.5 -9.5s-19.5 -15.666 -25.5 -27.999s-9.83301 -27.333 -11.5 -45s-2.5 -37.5 -2.5 -59.5h227z" />
    <glyph glyph-name="fl" unicode="fl" horiz-adv-x="469" 
d="M300 639c-7.33301 1.33301 -18.168 2.99707 -32.501 4.99707s-28.5 3 -42.5 3c-17.333 0 -31 -3.33301 -41 -10s-17.667 -16.167 -23 -28.5s-8.66602 -27.666 -9.99902 -45.999s-2 -39.166 -2 -62.499h79v-65h-79v-435h-72v435h-61v65h61v28
c0 62.667 11.167 109 33.5 139s59.833 45 112.5 45c10.667 0 23.167 -0.5 37.5 -1.5s28.5 -2.33301 42.5 -4s27.167 -3.5 39.5 -5.5s22.166 -4.33301 29.499 -7v-580c0 -22 3.16699 -37.667 9.5 -47s15.166 -14 26.499 -14c14.667 0 31.334 3.66699 50.001 11l5 -58
c-8.66699 -5.33301 -20.5 -9.66602 -35.5 -12.999s-29.5 -5 -43.5 -5c-25.333 0 -45.666 8 -60.999 24s-23 43.333 -23 82v545z" />
    <glyph glyph-name=".notdef" horiz-adv-x="750" 
d="M50 700h650v-700h-650v700zM570 620l-195 -217l-195 217l-50 -50l197 -220l-197 -220l50 -50l195 217l195 -217l50 50l-198 220l198 220zM129 27h8v12h4c4 0 7.66699 0.833008 11 2.5s5 4.83398 5 9.50098c0 5.33301 -1.83301 8.66602 -5.5 9.99902s-7.5 2 -11.5 2h-11
v-36zM141 57c5.33301 0 8.00098 -1.66797 8.00098 -5.00098s-0.833008 -5.16602 -2.5 -5.49902s-3.83398 -0.5 -6.50098 -0.5h-3v11h4zM189.001 62.999h-31v-6h12v-30h7v30h12v6zM222.001 36.999c0 -2.66699 -2.33301 -4.00098 -7 -4.00098s-7.66699 0.666992 -9 2l-3 -7
c1.33301 0 3 -0.333008 5 -1s4.66699 -1 8 -1c9.33301 0 14 4 14 12c0 6 -3 9.33301 -9 10s-9 2.66699 -9 6c0 2 2 3 6 3c3.33301 0 6.33301 -0.666992 9 -2l2 7c-4 1.33301 -7.66699 2 -11 2c-9.33301 0 -14 -3.66699 -14 -11c0 -3.33301 1 -5.66602 3 -6.99902
s4 -2.5 6 -3.5s4 -1.83301 6 -2.5s3 -1.66699 3 -3zM237.001 46.998c2.66699 1.33301 5.66699 2.00195 9 2.00195s5 -1.33301 5 -4v-2c-0.666992 0 -1.33398 0.166992 -2.00098 0.5s-1.66699 0.5 -3 0.5c-8 0 -12 -3.33301 -12 -10c0 -5.33301 2.66699 -8 8 -8
c4 0 7 1.66699 9 5l2 -4h6c-0.666992 1.33301 -1 3.66602 -1 6.99902v11c0 6.66699 -3.33301 10 -10 10c-2.66699 0 -5.16699 -0.333008 -7.5 -1s-4.16602 -1.33398 -5.49902 -2.00098zM245.001 32c-2.66699 0 -4.00098 1.33301 -4.00098 4s1.66699 4 5 4
c1.33301 0 2.33301 -0.166992 3 -0.5s1.33398 -0.5 2.00098 -0.5v-3c-1.33301 -2.66699 -3.33301 -4 -6 -4zM292 27v16c0 8 -3 12 -9 12c-4.66699 0 -8 -1.66699 -10 -5l-2 4h-5v-27h7v17c1.33301 2.66699 3.33301 4 6 4c3.33301 0 5 -2 5 -6v-15h8zM297 28
c2.66699 -1.33301 5.99902 -2 9.99902 -2c7.33301 0 11 3 11 9c0 3.33301 -0.833008 5.33301 -2.5 6s-3.5 1.66699 -5.5 3c-3.33301 1.33301 -5 2.33301 -5 3c0 1.33301 1 2 3 2c2.66699 0 5.33398 -0.666992 8.00098 -2l2 6c-2.66699 1.33301 -6 2 -10 2
c-6.66699 0 -10 -3 -10 -9c0 -3.33301 1 -5.5 3 -6.5l5 -2.5c3.33301 0 5 -1 5 -3c0 -1.33301 -1 -2 -3 -2c-3.33301 0 -6.33301 0.666992 -9 2zM337.999 42c0 -14 6.66699 -21 20 -21s20 7 20 21c0 13.333 -6.66699 20 -20 20c-5.33301 0 -10 -1.83301 -14 -5.5
s-6 -8.5 -6 -14.5zM343.999 42c0 10 4.66699 15 14 15s14 -5 14 -15s-4.66699 -15 -14 -15s-14 5 -14 15zM363.999 38c-1.33301 -0.666992 -2.66602 -1 -3.99902 -1c-2.66699 0 -4 1.66699 -4 5c0 2.66699 1.33301 4 4 4h3l2 4c-2.66699 1.33301 -5 2 -7 2
c-6 0 -9 -3.33301 -9 -10c0 -7.33301 3 -11 9 -11c3.33301 0 5.66602 0.666992 6.99902 2zM398.999 27h8v12h4c4 0 7.66699 0.833008 11 2.5s5 4.83398 5 9.50098c0 5.33301 -1.83301 8.66602 -5.5 9.99902s-7.5 2 -11.5 2h-11v-36zM410.999 57
c5.33301 0 8.00098 -1.66797 8.00098 -5.00098s-0.833008 -5.16602 -2.5 -5.49902s-3.83398 -0.5 -6.50098 -0.5h-3v11h4zM432 46.999c2.66699 1.33301 5.66699 2.00195 9 2.00195s5 -1.33301 5 -4v-2c-0.666992 0 -1.33398 0.166992 -2.00098 0.5s-1.66699 0.5 -3 0.5
c-8.66699 0 -13 -3.33301 -13 -10c0 -5.33301 3 -8 9 -8c4 0 7 1.66699 9 5l2 -4h6c-0.666992 1.33301 -1 3.66602 -1 6.99902v11c0 6.66699 -3.33301 10 -10 10c-2.66699 0 -5.16699 -0.333008 -7.5 -1s-4.16602 -1.33398 -5.49902 -2.00098zM440 32.001
c-2.66699 0 -4.00098 1.33301 -4.00098 4s1.66699 4 5 4c1.33301 0 2.33301 -0.166992 3 -0.5s1.33398 -0.5 2.00098 -0.5v-3c-1.33301 -2.66699 -3.33301 -4 -6 -4zM477.999 54.001c-0.666992 0.666992 -2 1 -4 1c-2.66699 0 -4.66699 -1.66699 -6 -5h-1l-1 4h-6v-27h8v17
c0 2.66699 2 4 6 4h1c0.666992 0 1 -0.166992 1 -0.5s0.333008 -0.5 1 -0.5zM482.999 47.001c4 1.33301 7.00098 2.00195 9.00098 2.00195c3.33301 0 5 -1.33301 5 -4v-2c-0.666992 0 -1.33398 0.166992 -2.00098 0.5s-1.66699 0.5 -3 0.5c-8.66699 0 -13 -3.33301 -13 -10
c0 -5.33301 3 -8 9 -8c4.66699 0 7.66699 1.66699 9 5h1l1 -4h6c-0.666992 1.33301 -1 3.66602 -1 6.99902v11c0 6.66699 -3.33301 10 -10 10c-2.66699 0 -5 -0.333008 -7 -1s-3.66699 -1.33398 -5 -2.00098zM491 32.0029c-2.66699 0 -4.00098 1.33301 -4.00098 4
s1.66699 4 5 4c1.33301 0 2.33301 -0.166992 3 -0.5s1.33398 -0.5 2.00098 -0.5v-3c-1.33301 -2.66699 -3.33301 -4 -6 -4zM532.999 63.0029h-31v-6h11v-30h8v30h12v6zM540.999 54.0029h-7.99805l12 -27c-0.666992 -3.33301 -2.33398 -5 -5.00098 -5l-1 1l-2 -6
c1.33301 -0.666992 3 -1 5 -1c3.33301 0 6.66602 4.33301 9.99902 13l10 25h-8l-5 -15v-5h-1l-1 5zM565.001 16.0029h7.99902v12c0.666992 -1.33301 2.33398 -2 5.00098 -2c9.33301 0 14 5 14 15c0 9.33301 -3.66699 14 -11 14c-3.33301 0 -6.33301 -1.33301 -9 -4h-1l-1 3
h-5v-38zM579 49.0029c3.33301 0 4.99902 -2.66699 4.99902 -8c0 -6 -2.33301 -9 -7 -9c-1.33301 0 -2.66602 0.666992 -3.99902 2v10c0 3.33301 2 5 6 5zM617.999 34.0029c-1.33301 -1.33301 -3.66699 -2.00098 -7 -2.00098c-4.66699 0 -7.33398 2 -8.00098 6h19v6
c0 4 -1.16699 6.83301 -3.5 8.5s-5.16602 2.5 -8.49902 2.5c-9.33301 0 -14 -5 -14 -15c0 -9.33301 4.66699 -14 14 -14c2 0 4 0.333008 6 1s3.66699 1.33398 5 2.00098zM609.998 49.002c4 0 5.66699 -2 5 -6h-11c0 4 2 6 6 6z" />
    <glyph glyph-name="space" unicode=" " horiz-adv-x="212" 
 />
    <glyph glyph-name="exclam" unicode="!" horiz-adv-x="247" 
d="M101 700h75v-347l-15 -176h-45l-15 176v347zM88 45c0 18.667 4.5 32.667 13.5 42s21.167 14 36.5 14s27.5 -4.66699 36.5 -14s13.5 -23.333 13.5 -42c0 -19.333 -4.5 -33.666 -13.5 -42.999s-21.167 -14 -36.5 -14s-27.5 4.66699 -36.5 14s-13.5 23.666 -13.5 42.999z
" />
    <glyph glyph-name="quotedbl" unicode="&#x22;" horiz-adv-x="286" 
d="M177 700h69l-26 -193h-43v193zM72 700h69l-26 -193h-43v193z" />
    <glyph glyph-name="numbersign" unicode="#" 
d="M230 225h-82l-32 -167h-61l32 167h-63l13 60h61l27 140h-61l13 60h60l30 157h61l-30 -157h82l31 157h61l-30 -157h61l-14 -60h-59l-27 -140h60l-14 -60h-57l-32 -167h-62zM159 285h83l27 140h-83z" />
    <glyph glyph-name="dollar" unicode="$" 
d="M196 -12c-29.333 1.33301 -55.165 4.33301 -77.498 9s-40.833 11.667 -55.5 21l23 68c10.667 -7.33301 25.334 -14.333 44.001 -21s40.667 -10.667 66 -12v284c-16.667 10.667 -32.834 22 -48.501 34s-29.667 26 -42 42s-22.333 34.5 -30 55.5s-11.5 45.833 -11.5 74.5
c0 44 11.167 80.833 33.5 110.5s55.166 48.167 98.499 55.5v91h61v-89c26 -1.33301 47.667 -3.83301 65 -7.5s33.666 -9.16699 48.999 -16.5l-23 -65c-11.333 6 -24 11.167 -38 15.5s-31.667 7.16602 -53 8.49902v-258c16.667 -11.333 33.334 -23.333 50.001 -36
s31.5 -27.167 44.5 -43.5s23.5 -35 31.5 -56s12 -45.5 12 -73.5c0 -48 -11.833 -88.667 -35.5 -122s-57.834 -54.666 -102.501 -63.999v-93h-61v88zM241.001 57c24 5.33301 43.167 17.833 57.5 37.5s21.5 46.167 21.5 79.5c0 32 -7.66699 58 -23 78s-34 38 -56 54v-249z
M212.001 644c-27.333 -5.33301 -46.333 -17.6689 -57 -37.002s-16 -39.666 -16 -60.999c0 -29.333 6.83301 -53.666 20.5 -72.999s31.167 -37 52.5 -53v224z" />
    <glyph glyph-name="percent" unicode="%" horiz-adv-x="637" 
d="M55 542c0 30.667 3.16699 56.832 9.5 78.499s15.333 39.334 27 53.001s25.334 23.5 41.001 29.5s32.5 9 50.5 9s34.833 -2.83301 50.5 -8.5s29.334 -15 41.001 -28s20.667 -30.5 27 -52.5s9.5 -49 9.5 -81s-3.16699 -59 -9.5 -81s-15.333 -39.5 -27 -52.5
s-25.334 -22.333 -41.001 -28s-32.5 -8.5 -50.5 -8.5s-34.833 2.83301 -50.5 8.5s-29.334 15 -41.001 28s-20.667 30.5 -27 52.5s-9.5 49 -9.5 81zM120 541.998c0 -43.333 5.83203 -73.332 17.499 -89.999s26.834 -25 45.501 -25c9.33301 0 17.833 1.66699 25.5 5
s14.167 9.16602 19.5 17.499s9.5 20 12.5 35s4.5 34.167 4.5 57.5c0 22.667 -1.5 41.5 -4.5 56.5s-7.16699 26.833 -12.5 35.5s-11.833 14.667 -19.5 18s-16.167 5 -25.5 5c-10 0 -18.833 -1.66699 -26.5 -5s-14.167 -9.33301 -19.5 -18s-9.5 -20.5 -12.5 -35.5
s-4.5 -33.833 -4.5 -56.5zM348.999 170.999c0 30.667 3.16699 56.832 9.5 78.499s15.333 39.334 27 53.001s25.334 23.5 41.001 29.5s32.5 9 50.5 9s34.833 -2.83301 50.5 -8.5s29.334 -15 41.001 -28s20.667 -30.5 27 -52.5s9.5 -49 9.5 -81s-3.16699 -59 -9.5 -81
s-15.333 -39.5 -27 -52.5s-25.334 -22.333 -41.001 -28s-32.5 -8.5 -50.5 -8.5s-34.833 2.83301 -50.5 8.5s-29.334 15 -41.001 28s-20.667 30.5 -27 52.5s-9.5 49 -9.5 81zM413.999 170.997c0 -43.333 5.83203 -73.332 17.499 -89.999s26.834 -25 45.501 -25
c9.33301 0 17.833 1.66699 25.5 5s14.167 9.16602 19.5 17.499s9.5 20 12.5 35s4.5 34.167 4.5 57.5c0 22.667 -1.5 41.5 -4.5 56.5s-7.16699 26.833 -12.5 35.5s-11.833 14.667 -19.5 18s-16.167 5 -25.5 5c-10 0 -18.833 -1.66699 -26.5 -5s-14.167 -9.33301 -19.5 -18
s-9.5 -20.5 -12.5 -35.5s-4.5 -33.833 -4.5 -56.5zM517.998 712.998l47 -30l-426 -695l-47 30z" />
    <glyph glyph-name="ampersand" unicode="&#x26;" horiz-adv-x="656" 
d="M91 188c0 26.667 4.00098 51.8359 12.001 75.5029s18.5 45.667 31.5 66s27.833 38.833 44.5 55.5s33.667 31.667 51 45c-13.333 24 -25 48.667 -35 74s-15 52 -15 80c0 16 2.16699 31.667 6.5 47s11.5 29 21.5 41s22.667 21.667 38 29s34 11 56 11
c22.667 0 41.834 -3.33301 57.501 -10s28.167 -15.334 37.5 -26.001s16.166 -22.834 20.499 -36.501s6.5 -27.834 6.5 -42.501c0 -28.667 -9 -58 -27 -88s-45.333 -59.333 -82 -88c8.66699 -18.667 18.5 -38.167 29.5 -58.5s22.667 -40.666 35 -60.999l38 -60
c13 -19.667 25.833 -37.834 38.5 -54.501c12 16.667 23.333 39 34 67s19.334 55 26.001 81l58 -23c-3.33301 -11.333 -8 -25 -14 -41s-12.5 -32.167 -19.5 -48.5s-14.333 -32 -22 -47s-14.834 -27.5 -21.501 -37.5c22 -26 40.5 -46.167 55.5 -60.5
s30.167 -26.833 45.5 -37.5l-45 -52c-30 17.333 -62.667 48.333 -98 93c-9.33301 -12 -19.833 -23.5 -31.5 -34.5s-24.667 -20.833 -39 -29.5s-30.333 -15.667 -48 -21s-36.834 -8 -57.501 -8c-26 0 -50.5 4.16699 -73.5 12.5s-43 20.833 -60 37.5s-30.333 37.5 -40 62.5
s-14.5 54.167 -14.5 87.5zM413.001 130.002c-15.333 19.333 -30.335 39.999 -45.002 61.999l-42 66c-13.333 22 -25.5 43.333 -36.5 64s-20.167 39.667 -27.5 57c-14 -13.333 -27 -26.666 -39 -39.999s-22.5 -27.5 -31.5 -42.5s-16 -31.333 -21 -49s-7.5 -37.167 -7.5 -58.5
c0 -22 3.33301 -41.5 10 -58.5s15.834 -31.167 27.501 -42.5s25 -20 40 -26s30.833 -9 47.5 -9c12.667 0 25.334 2.33301 38.001 7s24.5 10.667 35.5 18s20.833 15.5 29.5 24.5s16 18.167 22 27.5zM251.999 584.001c0 -20 3.16797 -39.666 9.50098 -58.999
s14.5 -39 24.5 -59c27.333 23.333 46.166 44.666 56.499 63.999s15.5 36.666 15.5 51.999c0 18.667 -3.83301 34.834 -11.5 48.501s-21.5 20.5 -41.5 20.5c-18.667 0 -32.167 -6.33301 -40.5 -19s-12.5 -28.667 -12.5 -48z" />
    <glyph glyph-name="quotesingle" unicode="'" horiz-adv-x="181" 
d="M72 700h69l-26 -193h-43v193z" />
    <glyph glyph-name="parenleft" unicode="(" horiz-adv-x="233" 
d="M183 -220c-25.333 32 -46.501 67.167 -63.501 105.5s-30.833 77.666 -41.5 117.999s-18.334 81 -23.001 122s-7 80.167 -7 117.5c0 36.667 2.33301 75.334 7 116.001s12.334 81.5 23.001 122.5s24.834 81.167 42.501 120.5s39.167 76 64.5 110l45 -27
c-21.333 -34 -39 -69.667 -53 -107s-25.167 -75.166 -33.5 -113.499s-14.333 -76.333 -18 -114s-5.5 -73.5 -5.5 -107.5c0 -32 2 -67.167 6 -105.5s10.5 -76.833 19.5 -115.5s20.5 -76.334 34.5 -113.001s30.667 -69.667 50 -99z" />
    <glyph glyph-name="parenright" unicode=")" horiz-adv-x="233" 
d="M48 -190c19.333 29.333 35.998 62.333 49.998 99s25.5 74.334 34.5 113.001s15.5 77.167 19.5 115.5s6 73.5 6 105.5c0 34 -1.83301 69.833 -5.5 107.5s-9.66699 75.667 -18 114s-19.666 76.166 -33.999 113.499s-31.833 73 -52.5 107l45 27
c25.333 -34 46.833 -70.667 64.5 -110s31.834 -79.5 42.501 -120.5s18.334 -81.833 23.001 -122.5s7 -79.334 7 -116.001c0 -37.333 -2.33301 -76.5 -7 -117.5s-12.334 -81.667 -23.001 -122s-24.667 -79.666 -42 -117.999s-38.333 -73.5 -63 -105.5z" />
    <glyph glyph-name="asterisk" unicode="*" horiz-adv-x="291" 
d="M108 703l20 -38l15 -52l16 52l21 37l44 -24l-23 -40l-38 -43l55 11h42v-51h-39l-54 11l39 -44l20 -35l-43 -25l-21 38l-19 55l-15 -53l-21 -37l-44 25l23 38l35 38l-47 -11h-44v51h44l50 -11l-38 41l-22 41z" />
    <glyph glyph-name="plus" unicode="+" horiz-adv-x="415" 
d="M35 373h138v156h68v-156h138v-67h-138v-156h-68v156h-138v67z" />
    <glyph glyph-name="comma" unicode="," horiz-adv-x="186" 
d="M36 43c0 16.667 4.83105 30 14.498 40s22.167 15 37.5 15c17.333 0 31.5 -7 42.5 -21s16.5 -36 16.5 -66c0 -22 -2.83301 -41.833 -8.5 -59.5s-13 -33.167 -22 -46.5s-18.833 -24.333 -29.5 -33s-21 -15 -31 -19l-25 34c8.66699 4.66699 16.834 10.834 24.501 18.501
s14 16.167 19 25.5s8.83301 19.166 11.5 29.499s4 20.5 4 30.5c-13.333 -4 -25.666 -1.33301 -36.999 8s-17 24 -17 44z" />
    <glyph glyph-name="hyphen" unicode="-" horiz-adv-x="291" 
d="M47 320h197v-69h-197v69z" />
    <glyph glyph-name="period" unicode="." horiz-adv-x="178" 
d="M39 45c0 18.667 4.5 32.667 13.5 42s21.167 14 36.5 14s27.5 -4.66699 36.5 -14s13.5 -23.333 13.5 -42c0 -19.333 -4.5 -33.666 -13.5 -42.999s-21.167 -14 -36.5 -14s-27.5 4.66699 -36.5 14s-13.5 23.666 -13.5 42.999z" />
    <glyph glyph-name="slash" unicode="/" horiz-adv-x="295" 
d="M266 712l56 -22l-292 -830l-58 21z" />
    <glyph glyph-name="zero" unicode="0" 
d="M38 350c0 64 4.00098 119.001 12.001 165.001s20 83.5 36 112.5s35.667 50.333 59 64s50 20.5 80 20.5c32 0 59.833 -6.83301 83.5 -20.5s43.167 -35 58.5 -64s26.666 -66.5 33.999 -112.5s11 -101 11 -165c0 -64.667 -4 -119.834 -12 -165.501s-20 -83 -36 -112
s-35.5 -50.333 -58.5 -64s-49.5 -20.5 -79.5 -20.5c-32.667 0 -60.834 7 -84.501 21s-43.167 35.667 -58.5 65s-26.666 66.833 -33.999 112.5s-11 100.167 -11 163.5zM113.001 350.001c0 -95.333 8.99902 -168.667 26.999 -220s47 -77 87 -77
c38.667 0 66.834 23.5 84.501 70.5s26.5 122.5 26.5 226.5c0 94.667 -8.5 167.834 -25.5 219.501s-46.167 77.5 -87.5 77.5c-38.667 0 -67 -23.333 -85 -70s-27 -122.334 -27 -227.001z" />
    <glyph glyph-name="one" unicode="1" 
d="M94 67h113v487l9 59l-34 -48l-84 -68l-38 45l182 170h37v-645h109v-67h-294v67z" />
    <glyph glyph-name="two" unicode="2" 
d="M368 547c0 -36.667 -5.50293 -75 -16.5029 -115s-25 -79.5 -42 -118.5s-36 -76.5 -57 -112.5s-41.5 -68 -61.5 -96l-40 -44v-3l53 9h175v-67h-324v32c12.667 15.333 27.334 34.666 44.001 57.999s33.834 48.833 51.501 76.5s35 57 52 88s32.167 62.5 45.5 94.5
s24.166 63.667 32.499 95s12.5 61.333 12.5 90c0 34 -7.83301 61 -23.5 81s-38.5 30 -68.5 30c-19.333 0 -38.166 -3.5 -56.499 -10.5s-34.166 -15.833 -47.499 -26.5l-28 53c18 16 40 28.5 66 37.5s53.333 13.5 82 13.5c49.333 0 86.833 -15.167 112.5 -45.5
s38.5 -70.166 38.5 -119.499z" />
    <glyph glyph-name="three" unicode="3" 
d="M93 76c12.667 -7.33301 27.1699 -12.999 43.5029 -16.999s35.166 -6 56.499 -6c18 0 34.5 3.66699 49.5 11s28 17.666 39 30.999s19.5 29.166 25.5 47.499s9 38.5 9 60.5c0 49.333 -10.833 85.333 -32.5 108s-51.834 34 -90.501 34h-60v29l116 224l39 42l-55 -7h-157v67
h290v-29l-128 -239l-30 -29v-2l29 6c20.667 0 40.334 -4.16699 59.001 -12.5s34.667 -20.666 48 -36.999s24 -36.5 32 -60.5s12 -52 12 -84c0 -36 -5.16699 -68 -15.5 -96s-24.333 -51.5 -42 -70.5s-38.334 -33.5 -62.001 -43.5s-48.834 -15 -75.501 -15
c-23.333 0 -45.333 2 -66 6s-38.667 9.66699 -54 17z" />
    <glyph glyph-name="four" unicode="4" 
d="M431 215h-93v-215h-72v215h-246v34l265 462h53v-431h93v-65zM266 504l12 86h-3l-30 -77l-110 -191l-38 -49l55 7h114v224z" />
    <glyph glyph-name="five" unicode="5" 
d="M357 700l-0.000976562 -69.999h-190v-204l34 3c53.333 -0.666992 95.333 -19 126 -55s46.334 -87.667 47.001 -155c-0.666992 -37.333 -6.16699 -70.333 -16.5 -99s-24.5 -52.834 -42.5 -72.501s-39 -34.5 -63 -44.5s-49.667 -15 -77 -15c-46 0 -83 6.33301 -111 19
l18 64c12 -6 25.333 -10.167 40 -12.5s31.667 -3.5 51 -3.5c38 0 68.833 13.833 92.5 41.5s35.834 66.5 36.501 116.5c-0.666992 51.333 -12.834 89.333 -36.501 114s-56.5 37 -98.5 37l-66 -5v341h256z" />
    <glyph glyph-name="six" unicode="6" 
d="M405 211c-0.666992 -33.333 -4.83203 -63.832 -12.499 -91.499s-19 -51.167 -34 -70.5s-33.333 -34.333 -55 -45s-46.167 -16 -73.5 -16c-56 0 -99.833 20.333 -131.5 61s-47.5 102.667 -47.5 186c0 70.667 7.16699 133.667 21.5 189s33.833 103 58.5 143
s53.667 72.167 87 96.5s69 40.5 107 48.5l20 -58c-30 -8 -57.333 -21.333 -82 -40s-46.334 -41.334 -65.001 -68.001s-34.167 -56.667 -46.5 -90s-20.833 -69 -25.5 -107c8.66699 18 23.167 33.667 43.5 47s45.5 20 75.5 20c48 0 86.5 -17 115.5 -51
s43.833 -85.333 44.5 -154zM332.002 204.001c0 98 -35.333 146.999 -106 146.999c-25.333 0 -47 -8 -65 -24s-30.667 -34 -38 -54c-1.33301 -8.66699 -2 -17.167 -2 -25.5s0.333008 -16.166 1 -23.499c-0.666992 -22 1.16602 -43.167 5.49902 -63.5s11 -38.5 20 -54.5
s20.333 -28.833 34 -38.5s29.834 -14.5 48.501 -14.5c30 0 54.5 13.333 73.5 40s28.5 63.667 28.5 111z" />
    <glyph glyph-name="seven" unicode="7" 
d="M95 0l202 591l36 49l-48 -9h-229v69h341v-27l-230 -673h-72z" />
    <glyph glyph-name="eight" unicode="8" 
d="M58 162c0 44.667 9.16797 82.6689 27.501 114.002s45.5 59.666 81.5 84.999c-13.333 10 -25.833 20.5 -37.5 31.5s-21.834 23.5 -30.501 37.5s-15.5 29.667 -20.5 47s-7.5 37.333 -7.5 60c0 54 14.167 96.667 42.5 128s67.166 47 116.499 47
c46 0 82.5 -14.167 109.5 -42.5s40.5 -67.166 40.5 -116.499c0 -38 -7.33301 -71.667 -22 -101s-37.667 -58 -69 -86c14 -10 27.333 -21 40 -33s23.834 -25.5 33.501 -40.5s17.167 -32 22.5 -51s8 -40.833 8 -65.5c0 -56.667 -15.167 -102.167 -45.5 -136.5
s-72.5 -51.5 -126.5 -51.5c-26 0 -49 4.33301 -69 13s-37 20.667 -51 36s-24.667 33.666 -32 54.999s-11 44.666 -11 69.999zM214.001 333.002c-30.667 -22.667 -52.833 -47.998 -66.5 -75.998s-20.5 -56 -20.5 -84c0 -34 8.33301 -62.5 25 -85.5s41 -34.5 73 -34.5
c26 0 48.5 9.5 67.5 28.5s28.5 49.167 28.5 90.5c0 20.667 -3 39 -9 55s-14 30.167 -24 42.5s-21.333 23.666 -34 33.999s-26 20.166 -40 29.499zM241.002 392.004c22.667 22.667 40.001 45.502 52.001 68.502s18 48.5 18 76.5c0 36.667 -8.16699 64.167 -24.5 82.5
s-35.5 27.5 -57.5 27.5c-14 0 -26.5 -2.83301 -37.5 -8.5s-20.167 -13.5 -27.5 -23.5s-13 -21.5 -17 -34.5s-6 -26.833 -6 -41.5c0 -18 2.66699 -34.167 8 -48.5s12.666 -27.333 21.999 -39s20 -22.334 32 -32.001s24.667 -18.834 38 -27.501z" />
    <glyph glyph-name="nine" unicode="9" 
d="M46 488c0 69.333 14.833 123.999 44.5 163.999s73.834 60 132.501 60c56 0 99.5 -20.667 130.5 -62s46.5 -104.666 46.5 -189.999c0 -75.333 -7 -140.833 -21 -196.5s-33.333 -102.667 -58 -141s-53.667 -68.5 -87 -90.5s-69.333 -36.667 -108 -44l-19 59
c64 16.667 113.667 50.167 149 100.5s57.666 113.5 66.999 189.5c-14 -19.333 -29.5 -33 -46.5 -41s-39.5 -12 -67.5 -12c-21.333 0 -41.833 4.16699 -61.5 12.5s-37 21 -52 38s-27 38.333 -36 64s-13.5 55.5 -13.5 89.5zM119 495.999c0 -47.333 9.66699 -83.667 29 -109
s45 -38 77 -38c25.333 0 46.833 5.5 64.5 16.5s30.5 25.167 38.5 42.5c1.33301 8.66699 2 17 2 25v23c0 25.333 -2.16699 49.5 -6.5 72.5s-11 43.333 -20 61s-20.5 31.667 -34.5 42s-30.667 15.5 -50 15.5c-31.333 0 -55.833 -13.667 -73.5 -41s-26.5 -64 -26.5 -110z" />
    <glyph glyph-name="colon" unicode=":" horiz-adv-x="206" 
d="M76 448c0 18.667 4.5 32.667 13.5 42s21.167 14 36.5 14s27.5 -4.66699 36.5 -14s13.5 -23.333 13.5 -42c0 -19.333 -4.5 -33.666 -13.5 -42.999s-21.167 -14 -36.5 -14s-27.5 4.66699 -36.5 14s-13.5 23.666 -13.5 42.999zM76 45c0 18.667 4.5 32.667 13.5 42
s21.167 14 36.5 14s27.5 -4.66699 36.5 -14s13.5 -23.333 13.5 -42c0 -19.333 -4.5 -33.666 -13.5 -42.999s-21.167 -14 -36.5 -14s-27.5 4.66699 -36.5 14s-13.5 23.666 -13.5 42.999z" />
    <glyph glyph-name="semicolon" unicode=";" horiz-adv-x="216" 
d="M75 43c0 16.667 4.83105 30 14.498 40s22.167 15 37.5 15c17.333 0 31.5 -7 42.5 -21s16.5 -36 16.5 -66c0 -22 -2.83301 -41.833 -8.5 -59.5s-13 -33.167 -22 -46.5s-18.833 -24.333 -29.5 -33s-21 -15 -31 -19l-25 34c8.66699 4.66699 16.834 10.834 24.501 18.501
s14 16.167 19 25.5s8.83301 19.166 11.5 29.499s4 20.5 4 30.5c-13.333 -4 -25.666 -1.33301 -36.999 8s-17 24 -17 44zM84.998 448c0 18.667 4.5 32.667 13.5 42s21.167 14 36.5 14s27.5 -4.66699 36.5 -14s13.5 -23.333 13.5 -42c0 -19.333 -4.5 -33.666 -13.5 -42.999
s-21.167 -14 -36.5 -14s-27.5 4.66699 -36.5 14s-13.5 23.666 -13.5 42.999z" />
    <glyph glyph-name="less" unicode="&#x3c;" horiz-adv-x="415" 
d="M36 305v29l300 223l39 -54l-191 -145l-74 -38l73 -32l196 -144l-38 -54z" />
    <glyph glyph-name="equal" unicode="=" horiz-adv-x="415" 
d="M35 456h344v-67h-344v67zM35 291h344v-67h-344v67z" />
    <glyph glyph-name="greater" unicode="&#x3e;" horiz-adv-x="415" 
d="M379 344v-29l-298 -223l-41 53l192 145l73 38l-72 32l-197 144l40 53z" />
    <glyph glyph-name="question" unicode="?" horiz-adv-x="358" 
d="M123 177c-2 29.333 -0.166016 55.3291 5.50098 77.9961s13.5 43.5 23.5 62.5s20.833 36.833 32.5 53.5s22.834 33.834 33.501 51.501s19.5 36.334 26.5 56.001s10.5 41.834 10.5 66.501c0 30.667 -6.66699 55.334 -20 74.001s-36 28 -68 28
c-19.333 0 -38.333 -3.5 -57 -10.5s-35.334 -15.833 -50.001 -26.5l-28 56c20 13.333 41.833 24.333 65.5 33s52.5 13 86.5 13c48 0 84.333 -14 109 -42s37 -66.333 37 -115c0 -28.667 -3.66699 -54.334 -11 -77.001s-16.333 -43.5 -27 -62.5s-22.334 -37.167 -35.001 -54.5
s-24.5 -35.166 -35.5 -53.499s-20.167 -38 -27.5 -59s-11 -44.833 -11 -71.5h-60zM108.001 44.9961c0 18.667 4.5 32.667 13.5 42s21.167 14 36.5 14s27.5 -4.66699 36.5 -14s13.5 -23.333 13.5 -42c0 -19.333 -4.5 -33.666 -13.5 -42.999s-21.167 -14 -36.5 -14
s-27.5 4.66699 -36.5 14s-13.5 23.666 -13.5 42.999z" />
    <glyph glyph-name="at" unicode="@" horiz-adv-x="857" 
d="M565 491l33.0078 0.00585938l-41 -291c-6 -44.667 -7.83301 -77.834 -5.5 -99.501s12.166 -32.5 29.499 -32.5s34.666 5.66699 51.999 17s32.833 28 46.5 50s24.667 49 33 81s12.5 68.667 12.5 110c0 47.333 -6.83301 88.833 -20.5 124.5s-32.667 65.5 -57 89.5
s-53.833 42.167 -88.5 54.5s-73 18.5 -115 18.5c-43.333 0 -84 -8.83301 -122 -26.5s-71 -42.834 -99 -75.501s-50.167 -71.667 -66.5 -117s-24.5 -96 -24.5 -152c0 -58 7.5 -108.333 22.5 -151s36.167 -78.334 63.5 -107.001s59.666 -50 96.999 -64s78.666 -21 123.999 -21
c16 0 34.5 2 55.5 6s39.167 10 54.5 18l18 -56c-22.667 -10.667 -45.167 -18.167 -67.5 -22.5s-45.833 -6.5 -70.5 -6.5c-48.667 0 -94.834 7.66699 -138.501 23s-82 39.166 -115 71.499s-59.167 73.666 -78.5 123.999s-29 110.166 -29 179.499
c0 68.667 10.167 130.167 30.5 184.5s47.666 100.166 81.999 137.499s74.5 66 120.5 86s94.667 30 146 30c49.333 0 94.833 -7.33301 136.5 -22s77.834 -36.667 108.501 -66s54.5 -65.666 71.5 -108.999s25.5 -93.666 25.5 -150.999c0 -46 -6 -88.667 -18 -128
s-28.167 -73.333 -48.5 -102s-44 -51.167 -71 -67.5s-55.833 -24.5 -86.5 -24.5c-12.667 0 -24.167 1.66699 -34.5 5s-18.666 9 -24.999 17s-10.833 18.667 -13.5 32s-2.66699 29.666 0 48.999h-4c-7.33301 -13.333 -16 -26.166 -26 -38.499s-20.833 -23.333 -32.5 -33
s-24.334 -17.334 -38.001 -23.001s-27.834 -8.5 -42.501 -8.5c-28 0 -51.833 12.5 -71.5 37.5s-29.5 61.167 -29.5 108.5c0 49.333 5.5 95.333 16.5 138s26 79.667 45 111s41.167 55.833 66.5 73.5s52.333 26.5 81 26.5c19.333 0 35.166 -3.33301 47.499 -10
s24.166 -15.667 35.499 -27zM519.008 400.006c-8.66699 12 -17.499 20.665 -26.499 25.998s-20.167 8 -33.5 8c-20 0 -38.667 -7.5 -56 -22.5s-32.333 -35 -45 -60s-22.667 -53.5 -30 -85.5s-11 -65 -11 -99c0 -30 4.5 -53.833 13.5 -71.5s24.167 -26.5 45.5 -26.5
c10 0 20.333 3.66699 31 11s21.167 16.833 31.5 28.5s20.166 24.834 29.499 39.501s17.333 29.334 24 44.001z" />
    <glyph glyph-name="A" unicode="A" horiz-adv-x="473" 
d="M333 196h-198l-56 -196h-74l211 711h41l211 -711h-78zM155 263h160l-61 216l-19 105h-2l-19 -107z" />
    <glyph glyph-name="B" unicode="B" horiz-adv-x="471" 
d="M411 541c0 -17.333 -1.99902 -34.666 -5.99902 -51.999s-10.333 -33.666 -19 -48.999s-19.5 -29 -32.5 -41s-28.833 -21 -47.5 -27v-4c16 -3.33301 31.333 -8.83301 46 -16.5s27.667 -18.334 39 -32.001s20.333 -30.334 27 -50.001s10 -43.167 10 -70.5
c0 -36 -5.66699 -67.167 -17 -93.5s-26.833 -47.833 -46.5 -64.5s-42.334 -29 -68.001 -37s-52.834 -12 -81.501 -12h-32.5c-12.333 0 -25.5 0.5 -39.5 1.5s-27.833 2.33301 -41.5 4s-26.167 4.16699 -37.5 7.5v689c20 4 43.5 7.33301 70.5 10s56.167 4 87.5 4
c22.667 0 45.334 -2.16699 68.001 -6.5s43 -12.5 61 -24.5s32.5 -28.833 43.5 -50.5s16.5 -50.167 16.5 -85.5zM221.001 61c18 0 34.665 2.83594 49.998 8.50293s28.833 14.167 40.5 25.5s20.834 25.166 27.501 41.499s10 35.5 10 57.5c0 27.333 -4.16699 49.5 -12.5 66.5
s-19.166 30.167 -32.499 39.5s-28.5 15.666 -45.5 18.999s-34.5 5 -52.5 5h-67v-256c4 -1.33301 9.16699 -2.33301 15.5 -3s13.333 -1.33398 21 -2.00098s15.5 -1.16699 23.5 -1.5s15.333 -0.5 22 -0.5zM179.999 389.003c9.33301 0 19.999 0.332031 31.999 0.999023
s22 1.66699 30 3c24.667 10 45.834 26.167 63.501 48.5s26.5 49.833 26.5 82.5c0 22 -3 40.5 -9 55.5s-14.167 26.833 -24.5 35.5s-22.5 14.834 -36.5 18.501s-28.667 5.5 -44 5.5c-17.333 0 -33 -0.5 -47 -1.5s-24.667 -2.16699 -32 -3.5v-245h41z" />
    <glyph glyph-name="C" unicode="C" horiz-adv-x="458" 
d="M430 27c-16.667 -14 -37.668 -24 -63.001 -30s-52 -9 -80 -9c-35.333 0 -68 6.66699 -98 20s-55.833 34.5 -77.5 63.5s-38.5 66.5 -50.5 112.5s-18 101.333 -18 166c0 66.667 6.83301 123 20.5 169s31.834 83.333 54.501 112s48.834 49.334 78.501 62.001
s60.167 19 91.5 19c32 0 58.5 -2.33301 79.5 -7s39.167 -10.334 54.5 -17.001l-18 -68c-13.333 7.33301 -29 13 -47 17s-38.667 6 -62 6s-45.333 -5.16699 -66 -15.5s-39 -27 -55 -50s-28.667 -53.167 -38 -90.5s-14 -83 -14 -137c0 -97.333 16.667 -170.5 50 -219.5
s77.666 -73.5 132.999 -73.5c22.667 0 43 3.16699 61 9.5s33.333 13.833 46 22.5z" />
    <glyph glyph-name="D" unicode="D" horiz-adv-x="525" 
d="M64 700c10.667 2 22.499 3.49902 35.499 4.49902s26.167 1.66699 39.5 2l39.5 1c13 0.333008 25.167 0.5 36.5 0.5c48.667 0 90 -8.33301 124 -25s61.667 -40.5 83 -71.5s36.666 -68.167 45.999 -111.5s14 -91.666 14 -144.999c0 -48 -4.5 -94 -13.5 -138
s-24.167 -82.667 -45.5 -116s-49.5 -60 -84.5 -80s-78.833 -30 -131.5 -30c-8.66699 0 -19.667 0.166992 -33 0.5s-27.166 1 -41.499 2s-27.666 1.83301 -39.999 2.5s-21.833 1.66699 -28.5 3v701zM218.999 638.999l-21.501 0.00292969
c-7.66699 0 -15.167 -0.333008 -22.5 -1s-14.166 -1.33398 -20.499 -2.00098s-11.5 -1.33398 -15.5 -2.00098v-570c2.66699 -0.666992 7.5 -1.16699 14.5 -1.5l22 -1l22 -1c7 -0.333008 12.167 -0.5 15.5 -0.5c36.667 0 67.334 8 92.001 24s44.167 37.5 58.5 64.5
s24.5 58.333 30.5 94s9 73.5 9 113.5c0 35.333 -2.66699 70 -8 104s-14.833 64.167 -28.5 90.5s-32.334 47.666 -56.001 63.999s-54.167 24.5 -91.5 24.5z" />
    <glyph glyph-name="E" unicode="E" horiz-adv-x="429" 
d="M64 700h311v-69h-236v-237h217v-69h-217v-256h241v-69h-316v700z" />
    <glyph glyph-name="F" unicode="F" horiz-adv-x="413" 
d="M64 700h311v-69h-236v-247h220v-69h-220v-315h-75v700z" />
    <glyph glyph-name="G" unicode="G" horiz-adv-x="492" 
d="M257 349h192.995v-308c-18.667 -17.333 -42.667 -30.5 -72 -39.5s-59 -13.5 -89 -13.5c-37.333 0 -71.166 7 -101.499 21s-56.166 35.833 -77.499 65.5s-37.833 67.167 -49.5 112.5s-17.5 99.666 -17.5 162.999c0 65.333 7 120.833 21 166.5s32.833 83 56.5 112
s50.667 50.167 81 63.5s61.5 20 93.5 20s58.833 -2.16699 80.5 -6.5s40.167 -10.166 55.5 -17.499l-18 -68c-13.333 7.33301 -29.166 13 -47.499 17s-39.5 6 -63.5 6c-23.333 0 -45.666 -5 -66.999 -15s-40.5 -26.5 -57.5 -49.5s-30.5 -53.167 -40.5 -90.5
s-15 -83.333 -15 -138c0 -100 15.833 -173.833 47.5 -221.5s75.167 -71.5 130.5 -71.5c34.667 0 63.334 8.33301 86.001 25v204l-129 19v44z" />
    <glyph glyph-name="H" unicode="H" horiz-adv-x="536" 
d="M397 323h-258v-323h-75v700h75v-308h258v308h75v-700h-75v323z" />
    <glyph glyph-name="I" unicode="I" horiz-adv-x="233" 
d="M79 700h75v-700h-75v700z" />
    <glyph glyph-name="J" unicode="J" horiz-adv-x="241" 
d="M93 700l75 -0.000976562v-543c0 -54.667 -8.83301 -96.167 -26.5 -124.5s-48.5 -42.5 -92.5 -42.5c-10.667 0 -23.5 1.33301 -38.5 4s-27.167 6.66699 -36.5 12l16 65c6.66699 -4 14.167 -7 22.5 -9s16.833 -3 25.5 -3c12 0 21.667 2.66699 29 8s13 12.833 17 22.5
s6.5 21.334 7.5 35.001s1.5 29.167 1.5 46.5v529z" />
    <glyph glyph-name="K" unicode="K" horiz-adv-x="493" 
d="M175 324h-36v-324h-75v700h75v-326l35 14l182 312h86l-183 -302l-35 -32l41 -40l203 -326h-95z" />
    <glyph glyph-name="L" unicode="L" horiz-adv-x="415" 
d="M401 0h-337v700h75v-631h262v-69z" />
    <glyph glyph-name="M" unicode="M" horiz-adv-x="637" 
d="M498 460l9 106h-4l-32 -99l-141 -304h-25l-148 304l-31 99h-4l14 -106v-460h-72v700h63l169 -344l25 -82h2l24 83l160 343h66v-700h-75v460z" />
    <glyph glyph-name="N" unicode="N" horiz-adv-x="538" 
d="M171 444l-43 110h-3l11 -110v-444h-72v711h45l259 -454l41 -105h4l-11 105v443h72v-711h-46z" />
    <glyph glyph-name="O" unicode="O" horiz-adv-x="549" 
d="M43 350c0 118.667 19 208.667 57 270s96 92 174 92c42 0 77.667 -8.5 107 -25.5s53.166 -41.167 71.499 -72.5s31.833 -69.333 40.5 -114s13 -94.667 13 -150c0 -118.667 -19.167 -208.667 -57.5 -270s-96.5 -92 -174.5 -92c-41.333 0 -76.666 8.5 -105.999 25.5
s-53.333 41.167 -72 72.5s-32.167 69.333 -40.5 114s-12.5 94.667 -12.5 150zM122 350c0 -39.333 2.83398 -76.667 8.50098 -112s14.5 -66.333 26.5 -93s27.667 -48 47 -64s42.666 -24 69.999 -24c50 0 88 24 114 72s39 121.667 39 221c0 38.667 -2.83301 75.667 -8.5 111
s-14.5 66.5 -26.5 93.5s-27.667 48.5 -47 64.5s-43 24 -71 24c-49.333 0 -87 -24 -113 -72s-39 -121.667 -39 -221z" />
    <glyph glyph-name="P" unicode="P" horiz-adv-x="451" 
d="M64 693c21.333 6 43.998 9.99707 67.998 11.9971s47.667 3 71 3c26.667 0 53 -3 79 -9s49.5 -17 70.5 -33s38 -38 51 -66s19.5 -63.667 19.5 -107c0 -42 -6.16699 -77.667 -18.5 -107s-28.666 -53.166 -48.999 -71.499s-43.666 -31.666 -69.999 -39.999
s-53.5 -12.5 -81.5 -12.5h-13c-6 0 -12.333 0.166992 -19 0.5s-13.167 0.833008 -19.5 1.5s-10.833 1.33398 -13.5 2.00098v-266h-75v693zM206.998 638.997c-13.333 0 -26.167 -0.500977 -38.5 -1.50098s-22.166 -2.5 -29.499 -4.5v-298
c2.66699 -1.33301 6.83398 -2.16602 12.501 -2.49902l17.5 -1c6 -0.333008 11.833 -0.5 17.5 -0.5h12.5c18.667 0 36.667 2.33301 54 7s32.666 13.167 45.999 25.5s24.166 29 32.499 50s12.5 47.5 12.5 79.5c0 28 -3.83301 51.333 -11.5 70s-17.667 33.667 -30 45
s-26.833 19.333 -43.5 24s-34 7 -52 7z" />
    <glyph glyph-name="Q" unicode="Q" horiz-adv-x="549" 
d="M566 -166c-13.333 -4.66699 -26.166 -7.83301 -38.499 -9.5s-24.833 -2.5 -37.5 -2.5c-26.667 0 -52.834 3.5 -78.501 10.5s-50.334 14.5 -74.001 22.5l-68.5 22.5c-22 7 -43 10.5 -63 10.5c-12 0 -24 -2 -36 -6v68c14.667 4 29.334 6 44.001 6
c22 0 44.167 -3.33301 66.5 -10s44.833 -14 67.5 -22s46.167 -15.333 70.5 -22s49.5 -10 75.5 -10c24 0 48 3.33301 72 10v-68zM43 350.001c0 118.667 19 208.667 57 270s96 92 174 92c42 0 77.667 -8.5 107 -25.5s53.166 -41.167 71.499 -72.5s31.833 -69.333 40.5 -114
s13 -94.667 13 -150c0 -118.667 -19.167 -208.667 -57.5 -270s-96.5 -92 -174.5 -92c-41.333 0 -76.666 8.5 -105.999 25.5s-53.333 41.167 -72 72.5s-32.167 69.333 -40.5 114s-12.5 94.667 -12.5 150zM122 350.001c0 -39.333 2.83398 -76.667 8.50098 -112
s14.5 -66.333 26.5 -93s27.667 -48 47 -64s42.666 -24 69.999 -24c50 0 88 24 114 72s39 121.667 39 221c0 38.667 -2.83301 75.667 -8.5 111s-14.5 66.5 -26.5 93.5s-27.667 48.5 -47 64.5s-43 24 -71 24c-49.333 0 -87 -24 -113 -72s-39 -121.667 -39 -221z" />
    <glyph glyph-name="R" unicode="R" horiz-adv-x="480" 
d="M64 693c22 5.33301 46.1689 9.16504 72.502 11.498s50.5 3.5 72.5 3.5c26 0 50.667 -3.16699 74 -9.5s43.666 -17 60.999 -32s31.166 -34.667 41.499 -59s15.5 -54.833 15.5 -91.5c0 -55.333 -11.5 -99.666 -34.5 -132.999s-53.5 -55.666 -91.5 -66.999l38 -37l138 -279
h-87l-150 305l-75 15v-320h-75v693zM139.002 369.999h59.998c38 0 68 11.667 90 35s33 59 33 107c0 36.667 -9.16699 67 -27.5 91s-45.5 36 -81.5 36c-13.333 0 -27.166 -0.5 -41.499 -1.5s-25.166 -2.5 -32.499 -4.5v-263z" />
    <glyph glyph-name="S" unicode="S" horiz-adv-x="428" 
d="M59 93c12.667 -8.66699 30.5 -16.8301 53.5 -24.4971s49.167 -11.5 78.5 -11.5c37.333 0 67.666 9.16699 90.999 27.5s35 47.166 35 86.499c0 26 -6.66699 48.667 -20 68s-30 37.166 -50 53.499s-41.5 32.333 -64.5 48s-44.5 33 -64.5 52s-36.667 40.833 -50 65.5
s-20 54.334 -20 89.001c0 56 16.833 97.5 50.5 124.5s77.5 40.5 131.5 40.5c33.333 0 63 -3 89 -9s47 -13.667 63 -23l-24 -66c-12 7.33301 -29.167 14 -51.5 20s-48.166 9 -77.499 9c-36 0 -62.667 -8.83301 -80 -26.5s-26 -39.834 -26 -66.501
c0 -23.333 6.66699 -44 20 -62s30 -35 50 -51s41.5 -32.167 64.5 -48.5s44.5 -34.5 64.5 -54.5s36.667 -42.667 50 -68s20 -55.333 20 -90c0 -58.667 -17.333 -104.667 -52 -138s-83.667 -50 -147 -50c-40 0 -72.833 3.66699 -98.5 11s-46.167 15.666 -61.5 24.999z" />
    <glyph glyph-name="T" unicode="T" horiz-adv-x="447" 
d="M433 631h-172v-631h-75v631h-172v69h419v-69z" />
    <glyph glyph-name="U" unicode="U" horiz-adv-x="521" 
d="M385 700l71.999 0.000976562v-469c0 -84.667 -16.5 -145.834 -49.5 -183.501s-79.833 -56.5 -140.5 -56.5c-70.667 0 -122.167 18.333 -154.5 55s-48.5 93 -48.5 169v485h75v-446c0 -36 2.33301 -66.333 7 -91s12.334 -44.667 23.001 -60s24 -26.333 40 -33
s35.667 -10 59 -10c44 0 74.5 15.333 91.5 46s25.5 80 25.5 148v446z" />
    <glyph glyph-name="V" unicode="V" horiz-adv-x="463" 
d="M218 221l18 -107h2l20 109l130 477h77l-212 -711h-40l-215 711h83z" />
    <glyph glyph-name="W" unicode="W" horiz-adv-x="672" 
d="M182 237l12 -117h2l12 119l112 461h43l112 -462l12 -118h1l14 119l89 461h75l-156 -711h-46l-111 461l-14 107h-3l-14 -108l-111 -460h-47l-159 711h81z" />
    <glyph glyph-name="X" unicode="X" horiz-adv-x="500" 
d="M203 356l-168 344h90l109 -237l20 -59l20 59l115 237h83l-174 -337l182 -363h-88l-121 251l-23 62l-21 -62l-124 -251h-84z" />
    <glyph glyph-name="Y" unicode="Y" horiz-adv-x="455" 
d="M191 278l-186 422h88l126 -305l13 -61h2l13 63l122 303h81l-184 -421v-279h-75v278z" />
    <glyph glyph-name="Z" unicode="Z" horiz-adv-x="439" 
d="M29 69l278 522l33 40h-311v69h381v-69l-279 -525l-32 -37h311v-69h-381v69z" />
    <glyph glyph-name="bracketleft" unicode="[" horiz-adv-x="248" 
d="M64 700h156v-65h-84v-800h84v-65h-156v930z" />
    <glyph glyph-name="backslash" unicode="\" horiz-adv-x="316" 
d="M330 -117l-60 -23l-298 829l61 23z" />
    <glyph glyph-name="bracketright" unicode="]" horiz-adv-x="248" 
d="M184 -230h-155v65h83v800h-83v65h155v-930z" />
    <glyph glyph-name="asciicircum" unicode="^" horiz-adv-x="412" 
d="M191 711h30l139 -276h-75l-62 135l-18 69l-24 -70l-72 -134h-69z" />
    <glyph glyph-name="underscore" unicode="_" horiz-adv-x="334" 
d="M0 -140h334v-65h-334v65z" />
    <glyph glyph-name="grave" unicode="`" horiz-adv-x="255" 
d="M195 571h-41l-94 128v21h83z" />
    <glyph glyph-name="a" unicode="a" horiz-adv-x="400" 
d="M54 470c19.333 12 42.8301 21.332 70.4971 27.999s56.834 10 87.501 10c28 0 50.5 -4.16699 67.5 -12.5s30.333 -19.666 40 -33.999s16 -30.666 19 -48.999s4.5 -37.5 4.5 -57.5c0 -40 -0.833008 -79 -2.5 -117s-2.5 -74 -2.5 -108c0 -25.333 0.833008 -48.833 2.5 -70.5
s4.83398 -42.167 9.50098 -61.5h-55l-17 59h-4c-10 -17.333 -24.667 -32.333 -44 -45s-45.333 -19 -78 -19c-36 0 -65.5 12.5 -88.5 37.5s-34.5 59.5 -34.5 103.5c0 28.667 4.83301 52.667 14.5 72s23.334 35 41.001 47s38.667 20.5 63 25.5s51.5 7.5 81.5 7.5h20
c6.66699 0 13.667 -0.333008 21 -1c2 20.667 3 39 3 55c0 38 -5.66699 64.667 -17 80s-32 23 -62 23c-18.667 0 -39 -2.83301 -61 -8.5s-40.333 -12.834 -55 -21.501zM270.997 227.999c-6.66699 0.666992 -13.332 1.16797 -19.999 1.50098s-13.334 0.5 -20.001 0.5
c-16 0 -31.667 -1.33301 -47 -4s-29 -7.33398 -41 -14.001s-21.5 -15.667 -28.5 -27s-10.5 -25.666 -10.5 -42.999c0 -26.667 6.5 -47.334 19.5 -62.001s29.833 -22 50.5 -22c28 0 49.667 6.66699 65 20s26 28 32 44v106z" />
    <glyph glyph-name="b" unicode="b" horiz-adv-x="434" 
d="M59 700h72.001v-238h3c27.333 33.333 63.666 50 108.999 50c51.333 0 89.833 -20.333 115.5 -61s38.5 -105 38.5 -193c0 -90 -17.167 -157 -51.5 -201s-82.833 -66 -145.5 -66c-30.667 0 -58.667 3.5 -84 10.5s-44.333 15.167 -57 24.5v674zM131.001 73
c9.33301 -5.33301 20.833 -9.5 34.5 -12.5s28.167 -4.5 43.5 -4.5c34.667 0 62.167 16.5 82.5 49.5s30.5 83.833 30.5 152.5c0 28.667 -1.83301 54.5 -5.5 77.5s-9.33398 42.833 -17.001 59.5s-17.667 29.5 -30 38.5s-27.166 13.5 -44.499 13.5
c-24 0 -43.833 -7.16699 -59.5 -21.5s-27.167 -33.833 -34.5 -58.5v-294z" />
    <glyph glyph-name="c" unicode="c" horiz-adv-x="356" 
d="M335 25c-16.667 -12.667 -35.668 -21.999 -57.001 -27.999s-43.666 -9 -66.999 -9c-32 0 -59 6.16699 -81 18.5s-39.833 30 -53.5 53s-23.667 50.667 -30 83s-9.5 68.166 -9.5 107.499c0 85.333 15.167 150.333 45.5 195s73.833 67 130.5 67c26 0 48.333 -2.33301 67 -7
s34.667 -10.667 48 -18l-20 -63c-26.667 15.333 -55.667 23 -87 23c-36 0 -63.167 -15.833 -81.5 -47.5s-27.5 -81.5 -27.5 -149.5c0 -27.333 2 -53 6 -77s10.667 -44.833 20 -62.5s21.333 -31.667 36 -42s33 -15.5 55 -15.5c17.333 0 33.5 3 48.5 9s27.167 13 36.5 21z" />
    <glyph glyph-name="d" unicode="d" horiz-adv-x="433" 
d="M374 172c0 -34 0.334961 -64.833 1.00195 -92.5s3 -54.834 7 -81.501h-49l-16 60h-4c-9.33301 -20 -24 -36.667 -44 -50s-44 -20 -72 -20c-54 0 -94.167 21 -120.5 63s-39.5 108 -39.5 198c0 85.333 16.167 150 48.5 194s76.833 66 133.5 66
c19.333 0 34.666 -1.16699 45.999 -3.5s23.666 -6.16602 36.999 -11.499v206h72v-528zM302.002 421c-9.33301 8 -19.834 13.832 -31.501 17.499s-27.167 5.5 -46.5 5.5c-35.333 0 -62.833 -16 -82.5 -48s-29.5 -81.333 -29.5 -148c0 -29.333 1.83301 -55.833 5.5 -79.5
s9.33398 -44.167 17.001 -61.5s17.667 -30.666 30 -39.999s27.5 -14 45.5 -14c48 0 78.667 28.333 92 85v283z" />
    <glyph glyph-name="e" unicode="e" horiz-adv-x="413" 
d="M358 34c-16 -14.667 -36.332 -26.001 -60.999 -34.001s-50.667 -12 -78 -12c-31.333 0 -58.5 6.16699 -81.5 18.5s-42 30 -57 53s-26 50.5 -33 82.5s-10.5 68 -10.5 108c0 85.333 15.667 150.333 47 195s75.666 67 132.999 67c18.667 0 37.167 -2.33301 55.5 -7
s34.833 -14 49.5 -28s26.5 -33.667 35.5 -59s13.5 -58.333 13.5 -99c0 -11.333 -0.5 -23.5 -1.5 -36.5s-2.16699 -26.5 -3.5 -40.5h-254c0 -28.667 2.33301 -54.667 7 -78s12 -43.166 22 -59.499s22.833 -29 38.5 -38s35.167 -13.5 58.5 -13.5c18 0 35.833 3.33301 53.5 10
s31.167 14.667 40.5 24zM302.001 301.999c1.33301 50 -5.66699 86.667 -21 110s-36.333 35 -63 35c-30.667 0 -55 -11.667 -73 -35s-28.667 -60 -32 -110h189z" />
    <glyph glyph-name="f" unicode="f" horiz-adv-x="257" 
d="M16 500l60.998 -0.000976562v28c0 62.667 9 108 27 136s48.667 42 92 42c17.333 0 33 -1 47 -3s28.333 -6.33301 43 -13l-18 -62c-12 5.33301 -23.167 8.83301 -33.5 10.5s-20.166 2.5 -29.499 2.5c-13.333 0 -23.666 -2.66699 -30.999 -8s-12.833 -13.666 -16.5 -24.999
s-6 -25.833 -7 -43.5s-1.5 -39.167 -1.5 -64.5h104v-65h-104v-435h-72v435h-61v65z" />
    <glyph glyph-name="g" unicode="g" horiz-adv-x="432" 
d="M374 -23c0 -64.667 -14.333 -112.333 -43 -143s-70.334 -46 -125.001 -46c-33.333 0 -60.666 2.83301 -81.999 8.5s-38.666 12.167 -51.999 19.5l21 62c13.333 -6 28 -11.667 44 -17s35.667 -8 59 -8c40.667 0 68.5 11.333 83.5 34s22.5 60.667 22.5 114v37h-3
c-10.667 -15.333 -24.334 -27.333 -41.001 -36s-38 -13 -64 -13c-54 0 -93.667 20.833 -119 62.5s-38 107.167 -38 196.5c0 86 16.5 151 49.5 195s81.833 66 146.5 66c31.333 0 58.333 -3 81 -9s42.667 -13 60 -21v-502zM302 428.001
c-20 10.667 -45.668 16.002 -77.001 16.002c-34 0 -61.333 -15.5 -82 -46.5s-31 -80.5 -31 -148.5c0 -28 1.66699 -53.833 5 -77.5s9 -44.334 17 -62.001s18.167 -31.334 30.5 -41.001s27.5 -14.5 45.5 -14.5c25.333 0 45.333 6.66699 60 20s25.334 33.333 32.001 60v294z
" />
    <glyph glyph-name="h" unicode="h" horiz-adv-x="440" 
d="M315 0v304c0 46.667 -5.5 82.167 -16.5 106.5s-32.833 36.5 -65.5 36.5c-23.333 0 -44.5 -8.33301 -63.5 -25s-31.833 -37.667 -38.5 -63v-359h-72v700h72v-247h3c13.333 17.333 29.833 31.5 49.5 42.5s44.167 16.5 73.5 16.5c22 0 41.167 -3 57.5 -9
s29.833 -16.333 40.5 -31s18.667 -34.167 24 -58.5s8 -54.5 8 -90.5v-323h-72z" />
    <glyph glyph-name="i" unicode="i" horiz-adv-x="217" 
d="M71 500h72v-500h-72v500zM58 652c0 16 4.5 29.002 13.5 39.002s20.833 15 35.5 15s26.834 -4.83301 36.501 -14.5s14.5 -22.834 14.5 -39.501c0 -16 -4.83301 -28.5 -14.5 -37.5s-21.834 -13.5 -36.501 -13.5s-26.5 4.66699 -35.5 14s-13.5 21.666 -13.5 36.999z" />
    <glyph glyph-name="j" unicode="j" horiz-adv-x="215" 
d="M72 500l72 0.000976562v-527c0 -68.667 -11 -118.167 -33 -148.5s-57.667 -41.833 -107 -34.5v65c14.667 0 26.5 3 35.5 9s16 15.167 21 27.5s8.16699 27.666 9.5 45.999s2 39.833 2 64.5v498zM58 652.001c0 16 4.5 29.002 13.5 39.002s20.833 15 35.5 15
s26.834 -4.83301 36.501 -14.5s14.5 -22.834 14.5 -39.501c0 -16 -4.83301 -28.5 -14.5 -37.5s-21.834 -13.5 -36.501 -13.5s-26.5 4.66699 -35.5 14s-13.5 21.666 -13.5 36.999z" />
    <glyph glyph-name="k" unicode="k" horiz-adv-x="388" 
d="M168 225h-37v-225h-72v700h72v-426l33 14l117 212h83l-118 -202l-35 -32l41 -39l129 -227h-87z" />
    <glyph glyph-name="l" unicode="l" horiz-adv-x="233" 
d="M136 119c0 -23.333 3.16992 -40.001 9.50293 -50.001s15.166 -15 26.499 -15c14 0 30.333 3.66699 49 11l7 -58c-8.66699 -5.33301 -20.834 -9.66602 -36.501 -12.999s-29.834 -5 -42.501 -5c-25.333 0 -45.833 7.83301 -61.5 23.5s-23.5 43.167 -23.5 82.5v605h72v-581z
" />
    <glyph glyph-name="m" unicode="m" horiz-adv-x="651" 
d="M293 0l-0.000976562 297.004c0 26.667 -0.833008 49.5 -2.5 68.5s-5.16699 34.5 -10.5 46.5s-12.666 20.833 -21.999 26.5s-21.666 8.5 -36.999 8.5c-22.667 0 -41.834 -8.83301 -57.501 -26.5s-26.5 -37.834 -32.5 -60.501v-360h-72v500h51l13 -53h3
c14 19.333 30.667 35 50 47s44 18 74 18c25.333 0 46.166 -5.5 62.499 -16.5s29.166 -30.5 38.499 -58.5c12 23.333 29.167 41.666 51.5 54.999s46.833 20 73.5 20c22 0 40.833 -2.83301 56.5 -8.5s28.334 -15.667 38.001 -30s16.834 -33.333 21.501 -57s7 -53.5 7 -89.5
v-327h-72v318c0 43.333 -4.16699 75.666 -12.5 96.999s-27.5 32 -57.5 32c-25.333 0 -45.5 -7.83301 -60.5 -23.5s-25.5 -36.834 -31.5 -63.501v-360h-72z" />
    <glyph glyph-name="n" unicode="n" horiz-adv-x="439" 
d="M315 0v305c0 50 -5.83301 86.167 -17.5 108.5s-32.5 33.5 -62.5 33.5c-26.667 0 -48.667 -8 -66 -24s-30 -35.667 -38 -59v-364h-72v500h52l13 -53h3c12.667 18 29.834 33.333 51.501 46s47.5 19 77.5 19c21.333 0 40.166 -3 56.499 -9s30 -16.167 41 -30.5
s19.333 -33.5 25 -57.5s8.5 -54.333 8.5 -91v-324h-72z" />
    <glyph glyph-name="o" unicode="o" horiz-adv-x="432" 
d="M37 250c0 90 15.5 156.167 46.5 198.5s75.167 63.5 132.5 63.5c61.333 0 106.5 -21.667 135.5 -65s43.5 -109 43.5 -197c0 -90.667 -15.667 -157 -47 -199s-75.333 -63 -132 -63c-61.333 0 -106.5 21.667 -135.5 65s-43.5 109 -43.5 197zM112 250
c0 -29.333 1.83301 -55.999 5.5 -79.999s9.66699 -44.667 18 -62s19.166 -30.833 32.499 -40.5s29.333 -14.5 48 -14.5c34.667 0 60.667 15.5 78 46.5s26 81.167 26 150.5c0 28.667 -1.83301 55.167 -5.5 79.5s-9.66699 45.166 -18 62.499s-19.166 30.833 -32.499 40.5
s-29.333 14.5 -48 14.5c-34 0 -59.833 -15.667 -77.5 -47s-26.5 -81.333 -26.5 -150z" />
    <glyph glyph-name="p" unicode="p" horiz-adv-x="435" 
d="M59 500l50.9971 0.000976562l11 -54h4c24.667 44 63.334 66 116.001 66s92.167 -19.667 118.5 -59s39.5 -103.666 39.5 -192.999c0 -42 -4.33301 -79.833 -13 -113.5s-21 -62.334 -37 -86.001s-35.5 -41.667 -58.5 -54s-48.5 -18.5 -76.5 -18.5
c-19.333 0 -34.666 1.16699 -45.999 3.5s-23.666 7.16602 -36.999 14.499v-206h-72v700zM130.997 79.001c9.33301 -8 19.833 -14.333 31.5 -19s27.167 -7 46.5 -7c35.333 0 63.333 18 84 54s31 87.333 31 154c0 28 -1.83301 53.333 -5.5 76s-9.5 42.167 -17.5 58.5
s-18.167 29 -30.5 38s-27.5 13.5 -45.5 13.5c-48.667 0 -80 -29.667 -94 -89v-279z" />
    <glyph glyph-name="q" unicode="q" horiz-adv-x="432" 
d="M374 -200h-71.999v241h-4c-10.667 -16.667 -24.167 -29.667 -40.5 -39s-37.5 -14 -63.5 -14c-52.667 0 -92 21.167 -118 63.5s-39 107.833 -39 196.5c0 86 17 151 51 195s83.333 66 148 66c28 0 54.667 -3.33301 80 -10s44.666 -13.667 57.999 -21v-678zM302.001 427
c-18.667 11.333 -44.999 17.001 -78.999 17.001c-34.667 0 -61.834 -16 -81.501 -48s-29.5 -81 -29.5 -147c0 -28 1.66699 -54 5 -78s8.83301 -44.833 16.5 -62.5s17.667 -31.334 30 -41.001s27.5 -14.5 45.5 -14.5c25.333 0 45.333 7.33301 60 22s25.667 36 33 64v288z" />
    <glyph glyph-name="r" unicode="r" horiz-adv-x="274" 
d="M59 500h50.999l13 -53h3c9.33301 19.333 21.5 34.5 36.5 45.5s33.167 16.5 54.5 16.5c15.333 0 32.666 -3 51.999 -9l-14 -73c-17.333 6 -32.666 9 -45.999 9c-21.333 0 -38.666 -6.16699 -51.999 -18.5s-22 -28.833 -26 -49.5v-368h-72v500z" />
    <glyph glyph-name="s" unicode="s" horiz-adv-x="338" 
d="M51 82c13.333 -8 29.167 -14.832 47.5 -20.499s37.166 -8.5 56.499 -8.5c22 0 40.667 5.5 56 16.5s23 28.833 23 53.5c0 20.667 -4.66699 37.667 -14 51s-21.166 25.333 -35.499 36s-29.833 20.5 -46.5 29.5s-32.167 19.833 -46.5 32.5s-26.166 27.667 -35.499 45
s-14 39.333 -14 66c0 42.667 11.5 74.834 34.5 96.501s55.5 32.5 97.5 32.5c27.333 0 51 -2.5 71 -7.5s37.333 -11.833 52 -20.5l-19 -60c-12.667 6.66699 -27.334 12.167 -44.001 16.5s-33.667 6.5 -51 6.5c-24 0 -41.5 -5 -52.5 -15s-16.5 -25.667 -16.5 -47
c0 -16.667 4.66699 -30.834 14 -42.501s21.166 -22.334 35.499 -32.001s29.833 -19.5 46.5 -29.5s32.167 -21.833 46.5 -35.5s26.166 -30 35.499 -49s14 -42.833 14 -71.5c0 -18.667 -3 -36.334 -9 -53.001s-15.167 -31.167 -27.5 -43.5s-27.666 -22.166 -45.999 -29.499
s-39.833 -11 -64.5 -11c-29.333 0 -54.666 2.83301 -75.999 8.5s-39.333 13.167 -54 22.5z" />
    <glyph glyph-name="t" unicode="t" horiz-adv-x="275" 
d="M9 500l61 -0.00195312v99l72 23v-122h108v-65h-108v-298c0 -29.333 3.5 -50.5 10.5 -63.5s18.5 -19.5 34.5 -19.5c13.333 0 24.833 1.5 34.5 4.5s20.167 6.83301 31.5 11.5l14 -57c-14.667 -7.33301 -30.834 -13.166 -48.501 -17.499s-36.167 -6.5 -55.5 -6.5
c-33.333 0 -57.166 10.833 -71.499 32.5s-21.5 56.834 -21.5 105.501v308h-61v65z" />
    <glyph glyph-name="u" unicode="u" horiz-adv-x="434" 
d="M124 500l-0.000976562 -305.999c0 -50.667 5.16699 -86.834 15.5 -108.501s29.166 -32.5 56.499 -32.5c14 0 26.5 2.83301 37.5 8.5s20.833 13.167 29.5 22.5s16.334 20 23.001 32s12 24.333 16 37v347h72v-358c0 -24 0.833008 -48.833 2.5 -74.5
s4.16699 -48.167 7.5 -67.5h-51l-18 70h-3c-11.333 -22 -27.666 -41.167 -48.999 -57.5s-48 -24.5 -80 -24.5c-21.333 0 -40 2.66699 -56 8s-29.667 15 -41 29s-19.833 33.167 -25.5 57.5s-8.5 55.5 -8.5 93.5v324h72z" />
    <glyph glyph-name="v" unicode="v" horiz-adv-x="388" 
d="M180 207l20 -99h2l18 101l88 291h76l-171 -511h-35l-174 511h82z" />
    <glyph glyph-name="w" unicode="w" horiz-adv-x="590" 
d="M326 500l89 -292l18 -96h2l15 98l68 290h68l-133 -511h-41l-101 328l-14 84h-2l-14 -85l-98 -327h-41l-137 511h77l77 -291l12 -97h2l18 99l82 289h53z" />
    <glyph glyph-name="x" unicode="x" horiz-adv-x="412" 
d="M161 256l-132 244h86l74 -143l20 -56l21 56l76 143h79l-133 -240l141 -260h-82l-84 157l-22 60l-23 -60l-84 -157h-79z" />
    <glyph glyph-name="y" unicode="y" horiz-adv-x="376" 
d="M183 177l21.002 -96.998h5l15 97l76 323h73l-119 -449c-9.33301 -36 -18.666 -69.667 -27.999 -101s-19.5 -58.5 -30.5 -81.5s-23.333 -41 -37 -54s-29.834 -19.5 -48.501 -19.5s-35 3 -49 9l12 68c9.33301 -3.33301 18.666 -4 27.999 -2s18.166 7.66699 26.499 17
s16 23.166 23 41.499s13.167 42.166 18.5 71.499l-162 500h82z" />
    <glyph glyph-name="z" unicode="z" horiz-adv-x="360" 
d="M32 65l186 327l35 43h-221v65h292v-65l-187 -330l-34 -40h221v-65h-292v65z" />
    <glyph glyph-name="braceleft" unicode="{" horiz-adv-x="282" 
d="M107 114c0 34 -5.50098 57.334 -16.501 70.001s-26.833 19 -47.5 19v65c20.667 0 36.5 6.66699 47.5 20s16.5 34.666 16.5 63.999v247c0 31.333 6.16699 56.166 18.5 74.499s32.5 27.5 60.5 27.5h74v-65h-39c-15.333 0 -26.166 -4.16699 -32.499 -12.5
s-9.5 -23.166 -9.5 -44.499v-244c0 -29.333 -5.5 -51.666 -16.5 -66.999s-24.167 -24.666 -39.5 -27.999v-6c15.333 -2.66699 28.5 -12.834 39.5 -30.501s16.5 -40.5 16.5 -68.5v-243c0 -20.667 3.16699 -35.334 9.5 -44.001s17.5 -13 33.5 -13h38v-65h-74
c-52.667 0 -79 33.667 -79 101v243z" />
    <glyph glyph-name="bar" unicode="|" horiz-adv-x="190" 
d="M65 700h61v-830h-61v830z" />
    <glyph glyph-name="braceright" unicode="}" horiz-adv-x="282" 
d="M175 -129c0 -67.333 -26.334 -101.001 -79.001 -101.001h-74v65h38c16 0 27.167 4.33301 33.5 13s9.5 23.334 9.5 44.001v243c0 28 5.5 50.833 16.5 68.5s24.167 27.834 39.5 30.501v6c-15.333 3.33301 -28.5 12.666 -39.5 27.999s-16.5 37.666 -16.5 66.999v244
c0 21.333 -3.16699 36.166 -9.5 44.499s-17.166 12.5 -32.499 12.5h-39v65h74c28 0 48.167 -9.16699 60.5 -27.5s18.5 -43.166 18.5 -74.499v-247c0 -29.333 5.5 -50.666 16.5 -63.999s26.833 -20 47.5 -20v-65c-20.667 0 -36.5 -6.33301 -47.5 -19s-16.5 -36 -16.5 -70
v-243z" />
    <glyph glyph-name="asciitilde" unicode="~" horiz-adv-x="415" 
d="M23 361c24 22 45.6709 37.333 65.0039 46s37.333 13 54 13c15.333 0 29.666 -2.83301 42.999 -8.5s26 -11.667 38 -18l35.5 -18c11.667 -5.66699 23.5 -8.5 35.5 -8.5c9.33301 0 19.333 2.33301 30 7s21.667 13.334 33 26.001l34 -60
c-21.333 -18 -40.333 -30.5 -57 -37.5s-32 -10.5 -46 -10.5c-14.667 0 -28.167 2.83301 -40.5 8.5s-24.333 12 -36 19s-23.334 13.333 -35.001 19s-23.834 8.5 -36.501 8.5c-12 0 -24.833 -3.33301 -38.5 -10s-28.834 -18.334 -45.501 -35.001z" />
    <glyph glyph-name="uni00A0" unicode="&#xa0;" horiz-adv-x="212" 
 />
    <glyph glyph-name="exclamdown" unicode="&#xa1;" horiz-adv-x="247" 
d="M147.006 -199.957h-74.9951v346.979l14.999 175.989h44.9971l14.999 -175.989v-346.979zM160.006 455.003c0 -18.665 -4.5 -32.6641 -13.5 -41.9971c-8.99902 -9.33301 -21.165 -13.999 -36.4971 -13.999c-15.333 0 -27.499 4.66602 -36.498 13.999
s-13.499 23.332 -13.499 41.9971c0 19.332 4.5 33.6641 13.499 42.9971s21.165 13.999 36.498 13.999c15.332 0 27.498 -4.66602 36.4971 -13.999c9 -9.33301 13.5 -23.665 13.5 -42.9971z" />
    <glyph glyph-name="cent" unicode="&#xa2;" 
d="M382 27c-12 -10 -26.168 -17.999 -42.501 -23.999s-33.166 -10 -50.499 -12v-91h-65v90c-27.333 4 -50.333 13 -69 27s-33.834 32.167 -45.501 54.5s-20.167 48.666 -25.5 78.999s-8 63.5 -8 99.5c0 76 12.667 136 38 180s62 70.333 110 79v91h65v-89
c18 -1.33301 34 -4 48 -8s26.667 -9.33301 38 -16l-20 -63c-10 6 -21.167 10.833 -33.5 14.5s-25.166 6.16699 -38.499 7.5v-393c16.667 1.33301 31.667 5 45 11s24.333 12.667 33 20zM147.999 250.001c2 -24 4.5 -46.501 7.5 -67.501s7.83301 -39.833 14.5 -56.5
s15.334 -31 26.001 -43s23.667 -20.333 39 -25v385c-28.667 -7.33301 -49.834 -26.666 -63.501 -57.999s-21.5 -76.333 -23.5 -135z" />
    <glyph glyph-name="sterling" unicode="&#xa3;" 
d="M42 382l54.002 -0.00292969c-6.66699 19.333 -12.334 40 -17.001 62s-7 48 -7 78c0 64.667 15.333 112.5 46 143.5s72 46.5 124 46.5c32.667 0 61 -2.66699 85 -8s44.333 -12 61 -20l-24 -64c-12.667 6.66699 -28.834 12.5 -48.501 17.5s-43.5 7.5 -71.5 7.5
c-30.667 0 -54.5 -10.667 -71.5 -32s-25.5 -52.666 -25.5 -93.999c0 -28 3 -52.667 9 -74s12.667 -42.333 20 -63h127v-65h-104c4.66699 -15.333 8.5 -31.666 11.5 -48.999s4.5 -36.666 4.5 -57.999c0 -19.333 -2.83301 -40.333 -8.5 -63s-13.5 -41 -23.5 -55l-39 -35v-4
l59 14h201v-67h-362v67c16.667 0.666992 31.167 5 43.5 13s22.5 18.5 30.5 31.5s14 27.667 18 44s6 32.5 6 48.5c0 22.667 -2 43 -6 61s-8.66699 35.333 -14 52h-78v65z" />
    <glyph glyph-name="currency" unicode="&#xa4;" 
d="M46 579l69 -67.001l19 -31c24.667 19.333 55 29 91 29c17.333 0 33.833 -2.5 49.5 -7.5s29.5 -12.167 41.5 -21.5l19 31l70 67l42 -43l-67 -69l-31 -19c18.667 -26 28 -56 28 -90c0 -37.333 -9.33301 -67.666 -28 -90.999l31 -19l67 -69l-42 -43l-70 68l-18 30
c-26 -18.667 -56.667 -28 -92 -28c-36 0 -66.333 9.33301 -91 28l-19 -30l-69 -68l-43 43l68 69l30 19c-18.667 24.667 -28 55 -28 91c0 17.333 2.5 33.5 7.5 48.5s11.833 28.833 20.5 41.5l-30 19l-68 69zM135 357.999c0 -27.333 8.33301 -49.833 25 -67.5
s38.334 -26.5 65.001 -26.5s48.5 8.83301 65.5 26.5s25.5 40.167 25.5 67.5c0 26 -8.5 48 -25.5 66s-38.833 27 -65.5 27s-48.334 -9 -65.001 -27s-25 -40 -25 -66z" />
    <glyph glyph-name="yen" unicode="&#xa5;" 
d="M89 326h79l-165 374h88l126 -305l13 -61h2l13 63l122 303h81l-164 -374h80v-58h-100v-71h100v-58h-100v-139h-75v139h-100v58h100v71h-100v58z" />
    <glyph glyph-name="brokenbar" unicode="&#xa6;" horiz-adv-x="189" 
d="M64 206h61v-336h-61v336zM125 364h-61v336h61v-336z" />
    <glyph glyph-name="section" unicode="&#xa7;" horiz-adv-x="405" 
d="M45 353c0 20.667 4.33008 41.167 12.9971 61.5s20.667 38.166 36 53.499l34 15c-14.667 11.333 -27.167 25 -37.5 41s-15.5 38 -15.5 66c0 35.333 11.167 64.5 33.5 87.5s55.5 34.5 99.5 34.5c28 0 52.333 -2.66699 73 -8s38.334 -11.666 53.001 -18.999l-18 -62
c-14 6.66699 -29.5 12.334 -46.5 17.001s-34.833 7 -53.5 7c-24 0 -41.5 -5.66699 -52.5 -17s-16.5 -25.333 -16.5 -42c0 -17.333 5.33301 -31.333 16 -42s23.834 -20.167 39.501 -28.5s32.667 -16.5 51 -24.5s35.333 -18 51 -30s28.834 -27.167 39.501 -45.5
s16 -41.833 16 -70.5c0 -20.667 -4 -41.5 -12 -62.5s-19.667 -39.167 -35 -54.5l-36 -14c14 -10.667 26.333 -24.167 37 -40.5s16 -38.166 16 -65.499c0 -40 -12.5 -70.333 -37.5 -91s-57.833 -31 -98.5 -31c-28 0 -52 2.5 -72 7.5s-37.333 12.167 -52 21.5l19 61
c12.667 -7.33301 27.334 -13.333 44.001 -18s34.334 -7 53.001 -7c48 0 72 20.333 72 61c0 16 -5.33301 29.167 -16 39.5s-23.834 19.666 -39.501 27.999s-32.667 16.5 -51 24.5s-35.333 18.167 -51 30.5s-28.834 27.666 -39.501 45.999s-16 41.833 -16 70.5zM287.997 345
c0 16 -3.16797 29.3311 -9.50098 39.998s-14.833 19.834 -25.5 27.501s-22.834 14.667 -36.501 21l-42.5 19.5c-16 -9.33301 -29.5 -22 -40.5 -38s-16.5 -36 -16.5 -60c0 -15.333 3.16699 -28.5 9.5 -39.5s14.833 -20.667 25.5 -29s22.834 -15.666 36.501 -21.999
l42.5 -19.5c14.667 9.33301 27.834 23 39.501 41s17.5 37.667 17.5 59z" />
    <glyph glyph-name="dieresis" unicode="&#xa8;" horiz-adv-x="365" 
d="M60 653c0 15.333 3.83301 27.333 11.5 36s18.167 13 31.5 13s23.833 -4.33301 31.5 -13s11.5 -20.667 11.5 -36c0 -14 -3.83301 -25.333 -11.5 -34s-18.167 -13 -31.5 -13s-23.833 4.33301 -31.5 13s-11.5 20 -11.5 34zM219 653c0 15.333 3.83301 27.333 11.5 36
s18.167 13 31.5 13s23.833 -4.33301 31.5 -13s11.5 -20.667 11.5 -36c0 -14 -3.83301 -25.333 -11.5 -34s-18.167 -13 -31.5 -13s-23.833 4.33301 -31.5 13s-11.5 20 -11.5 34z" />
    <glyph glyph-name="copyright" unicode="&#xa9;" horiz-adv-x="693" 
d="M50 293c0 46.667 7.83203 88.334 23.499 125.001s37 67.667 64 93s58.5 44.833 94.5 58.5s74.333 20.5 115 20.5s79 -6.83301 115 -20.5s67.5 -33.167 94.5 -58.5s48.333 -56.333 64 -93s23.5 -78.334 23.5 -125.001s-7.83301 -88.334 -23.5 -125.001
s-37 -67.834 -64 -93.501s-58.5 -45.167 -94.5 -58.5s-74.333 -20 -115 -20c-45.333 0 -86.166 6.66699 -122.499 20s-67.5 32.833 -93.5 58.5s-46 56.834 -60 93.501s-21 78.334 -21 125.001zM109.999 293c0 -38.667 6.16699 -73 18.5 -103s29.166 -55.167 50.499 -75.5
s46.333 -35.833 75 -46.5s59.667 -16 93 -16c32.667 0 63.5 5.33301 92.5 16s54.167 26.167 75.5 46.5s38.166 45.5 50.499 75.5s18.5 64.333 18.5 103s-6.16699 73 -18.5 103s-29.166 55.167 -50.499 75.5s-46.5 35.833 -75.5 46.5s-59.833 16 -92.5 16
c-33.333 0 -64.333 -5.33301 -93 -16s-53.667 -26.167 -75 -46.5s-38.166 -45.5 -50.499 -75.5s-18.5 -64.333 -18.5 -103zM445.999 155c-13.333 -7.33301 -28.001 -13 -44.001 -17s-34.667 -6 -56 -6c-45.333 0 -80 14.5 -104 43.5s-36 68.167 -36 117.5
c0 51.333 12.833 90.833 38.5 118.5s59.5 41.5 101.5 41.5c20.667 0 37.334 -2 50.001 -6s27.334 -9.66699 44.001 -17l-22 -55c-12.667 6 -24.5 10.333 -35.5 13s-20.5 4 -28.5 4c-23.333 0 -41.833 -7.5 -55.5 -22.5s-20.5 -40.5 -20.5 -76.5c0 -66 27.667 -99 83 -99
c25.333 0 47.666 5.33301 66.999 16z" />
    <glyph glyph-name="ordfeminine" unicode="&#xaa;" horiz-adv-x="316" 
d="M52 681c14 7.33301 32.167 13.665 54.5 18.998s47.5 8 75.5 8c35.333 0 59.333 -8.66699 72 -26s19.334 -42.333 20.001 -75c-0.666992 -46 -2 -88 -4 -126s0.666992 -71.667 8 -101h-50l-12 42h-3c-6.66699 -11.333 -16.5 -21.833 -29.5 -31.5s-30.5 -14.5 -52.5 -14.5
c-30 0 -53.333 8.5 -70 25.5s-25 40.167 -25 69.5c0 22 4.66699 40.333 14 55s22 26.334 38 35.001s34.5 14.5 55.5 17.5s43.833 3.83301 68.5 2.5c1.33301 26.667 -0.833984 45.667 -6.50098 57s-19.167 17 -40.5 17c-19.333 0 -37.5 -2.16699 -54.5 -6.5
s-31.167 -9.16602 -42.5 -14.499zM143 429.999c20 0 35.1689 4.83105 45.502 14.498s18.166 19.5 23.499 29.5v57c-14 0.666992 -27.667 0.833984 -41 0.500977s-25.333 -2.16602 -36 -5.49902s-19.334 -8.83301 -26.001 -16.5s-10 -18.5 -10 -32.5
c0 -13.333 3.66699 -24.5 11 -33.5s18.333 -13.5 33 -13.5z" />
    <glyph glyph-name="guillemotleft" unicode="&#xab;" horiz-adv-x="386" 
d="M178 259l127 228l48 -33l-80 -153l-38 -41l38 -36l85 -150l-48 -34zM29 259l129 230l50 -34l-82 -154l-38 -41l38 -36l88 -151l-51 -35z" />
    <glyph glyph-name="logicalnot" unicode="&#xac;" horiz-adv-x="415" 
d="M36 391h343v-191h-65v122h-278v69z" />
    <glyph glyph-name="uni00AD" unicode="&#xad;" horiz-adv-x="291" 
d="M47 320h197v-69h-197v69z" />
    <glyph glyph-name="registered" unicode="&#xae;" horiz-adv-x="591" 
d="M72 490c0 36 6.00098 67.833 18.001 95.5s28.167 51 48.5 70s44 33.333 71 43s55.5 14.5 85.5 14.5c31.333 0 60.666 -4.83301 87.999 -14.5s51 -24 71 -43s35.833 -42.333 47.5 -70s17.5 -59.5 17.5 -95.5s-6 -68 -18 -96s-28.167 -51.5 -48.5 -70.5
s-44 -33.333 -71 -43s-55.833 -14.5 -86.5 -14.5c-31.333 0 -60.5 4.83301 -87.5 14.5s-50.5 24 -70.5 43s-35.833 42.5 -47.5 70.5s-17.5 60 -17.5 96zM126.001 490c0 -29.333 4.50195 -54.832 13.502 -76.499s21.167 -39.834 36.5 -54.501s33.166 -25.5 53.499 -32.5
s42.166 -10.5 65.499 -10.5c24.667 0 47.334 3.5 68.001 10.5s38.5 17.667 53.5 32s26.833 32.333 35.5 54s13 47.5 13 77.5c0 28.667 -4.5 53.834 -13.5 75.501s-21.167 39.834 -36.5 54.501s-33.333 25.5 -54 32.5s-42.667 10.5 -66 10.5
c-24.667 0 -47.334 -3.5 -68.001 -10.5s-38.5 -17.833 -53.5 -32.5s-26.667 -32.834 -35 -54.501s-12.5 -46.834 -12.5 -75.501zM208.003 599.001c9.33301 2.66699 22.166 4.83301 38.499 6.5s31.833 2.5 46.5 2.5c23.333 0 43.5 -5 60.5 -15s25.5 -27 25.5 -51
c0 -18 -5.66699 -31.833 -17 -41.5s-25.666 -15.167 -42.999 -16.5l24 -11l62 -93h-52l-60 88l-41 13v-101h-44v219zM283.003 570c-5.33301 0 -11 -0.166992 -17 -0.5s-10.667 -1.5 -14 -3.5v-60h29c34 0 51 11.333 51 34c0 20 -16.333 30 -49 30z" />
    <glyph glyph-name="macron" unicode="&#xaf;" horiz-adv-x="363" 
d="M60 643h243v-59h-243v59z" />
    <glyph glyph-name="degree" unicode="&#xb0;" horiz-adv-x="342" 
d="M62 571c0 42 10.667 75.999 32 101.999s49.666 39 84.999 39c34.667 0 63 -12.167 85 -36.5s33 -59.166 33 -104.499s-11 -80.166 -33 -104.499s-50.333 -36.5 -85 -36.5c-35.333 0 -63.666 12.167 -84.999 36.5s-32 59.166 -32 104.499zM119 570.999
c0 -26 5.5 -47.167 16.5 -63.5s25.5 -24.5 43.5 -24.5s32.667 8.16699 44 24.5s17 37.5 17 63.5s-5.66699 47.167 -17 63.5s-26 24.5 -44 24.5s-32.5 -8.16699 -43.5 -24.5s-16.5 -37.5 -16.5 -63.5z" />
    <glyph glyph-name="plusminus" unicode="&#xb1;" horiz-adv-x="415" 
d="M35 469h139v155h67v-155h139v-67h-139v-105h-67v105h-139v67zM35 247h345v-67h-345v67z" />
    <glyph glyph-name="twosuperior" unicode="&#xb2;" horiz-adv-x="330" 
d="M267 695c0 -21.333 -2.83203 -42.167 -8.49902 -62.5s-13.334 -40.333 -23.001 -60s-21 -39 -34 -58l-40.5 -56.5l-37 -32v-2l46 15h112v-59h-238v32c14 14 30.167 31.833 48.5 53.5s35.833 44.834 52.5 69.501s30.667 50 42 76s17 50.667 17 74
c0 20 -5.16699 35.333 -15.5 46s-23.166 16 -38.499 16c-14.667 0 -28.834 -2.33301 -42.501 -7s-25.167 -10.334 -34.5 -17.001l-20 52c13.333 10.667 29.833 18.667 49.5 24s39.167 8 58.5 8c34 0 60.167 -9.66699 78.5 -29s27.5 -47 27.5 -83z" />
    <glyph glyph-name="threesuperior" unicode="&#xb3;" horiz-adv-x="330" 
d="M141 430c25.333 0 44.5 6.83496 57.5 20.502s19.167 32.834 18.5 57.501c0.666992 21.333 -4.83301 38.666 -16.5 51.999s-31.167 20 -58.5 20h-44v23l77 119l29 27l-41 -6h-105v57h211v-32l-82 -126l-21 -17v-3l20 3c30 0 53.5 -10.5 70.5 -31.5
s25.167 -49.5 24.5 -85.5c0.666992 -40.667 -11.5 -73.334 -36.5 -98.001s-57.5 -37 -97.5 -37c-19.333 0 -36.333 1.66699 -51 5s-27.667 7.66602 -39 12.999l13 56c10 -5.33301 20.833 -9.5 32.5 -12.5s24.5 -4.5 38.5 -4.5z" />
    <glyph glyph-name="acute" unicode="&#xb4;" horiz-adv-x="245" 
d="M107 720h78v-21l-82 -128h-43z" />
    <glyph glyph-name="mu" unicode="&#xb5;" 
d="M125 500l0.000976562 -302c0 -48 6.83301 -84.167 20.5 -108.5s36.167 -36.5 67.5 -36.5c28 0 51.333 8.33301 70 25s32.334 39 41.001 67v355h72v-337c0 -27.333 0.666992 -54.833 2 -82.5s4.66602 -54.5 9.99902 -80.5h-51l-23 62h-3
c-10.667 -21.333 -26.667 -39 -48 -53s-47.333 -21 -78 -21c-24.667 0 -43.834 4.33301 -57.501 13s-25.167 19.667 -34.5 33h-5l18 -101v-133h-73v700h72z" />
    <glyph glyph-name="mu" unicode="&#x3bc;" 
d="M125 500l0.000976562 -302c0 -48 6.83301 -84.167 20.5 -108.5s36.167 -36.5 67.5 -36.5c28 0 51.333 8.33301 70 25s32.334 39 41.001 67v355h72v-337c0 -27.333 0.666992 -54.833 2 -82.5s4.66602 -54.5 9.99902 -80.5h-51l-23 62h-3
c-10.667 -21.333 -26.667 -39 -48 -53s-47.333 -21 -78 -21c-24.667 0 -43.834 4.33301 -57.501 13s-25.167 19.667 -34.5 33h-5l18 -101v-133h-73v700h72z" />
    <glyph glyph-name="paragraph" unicode="&#xb6;" horiz-adv-x="403" 
d="M278 700h61v-830h-61v830zM148 310c-18 0 -34.166 5.16504 -48.499 15.498s-26.833 24.5 -37.5 42.5s-18.834 38.833 -24.501 62.5s-8.5 48.834 -8.5 75.501c0 26 3.16699 50.833 9.5 74.5s15.5 44.334 27.5 62.001s26.5 31.667 43.5 42s36.5 15.5 58.5 15.5h41v-830h-61
v440z" />
    <glyph glyph-name="periodcentered" unicode="&#xb7;" horiz-adv-x="213" 
d="M57 295c0 18.667 4.5 32.667 13.5 42s21.167 14 36.5 14s27.5 -4.66699 36.5 -14s13.5 -23.333 13.5 -42c0 -19.333 -4.5 -33.666 -13.5 -42.999s-21.167 -14 -36.5 -14s-27.5 4.66699 -36.5 14s-13.5 23.666 -13.5 42.999z" />
    <glyph glyph-name="cedilla" unicode="&#xb8;" horiz-adv-x="262" 
d="M156 0l-19.001 -43c43.333 -10 65 -35 65 -75c0 -26 -9.5 -47.5 -28.5 -64.5s-44.5 -25.5 -76.5 -25.5c-13.333 0 -25.666 1.33301 -36.999 4l7 39c15.333 -1.33301 27.5 -1 36.5 1s15.833 5 20.5 9s7.66699 8.5 9 13.5s2 9.83301 2 14.5c0 18.667 -23 31 -69 37l40 90
h50z" />
    <glyph glyph-name="onesuperior" unicode="&#xb9;" horiz-adv-x="330" 
d="M63 437h84v257l6 36l-22 -28l-60 -40l-26 42l125 103h41v-370h75v-57h-223v57z" />
    <glyph glyph-name="ordmasculine" unicode="&#xba;" horiz-adv-x="323" 
d="M34 542c0 30.667 3.16699 56.832 9.5 78.499s15.333 39.334 27 53.001s25.334 23.5 41.001 29.5s32.5 9 50.5 9s34.833 -2.83301 50.5 -8.5s29.334 -15 41.001 -28s20.667 -30.5 27 -52.5s9.5 -49 9.5 -81s-3.16699 -59 -9.5 -81s-15.333 -39.5 -27 -52.5
s-25.334 -22.333 -41.001 -28s-32.5 -8.5 -50.5 -8.5s-34.833 2.83301 -50.5 8.5s-29.334 15 -41.001 28s-20.667 30.5 -27 52.5s-9.5 49 -9.5 81zM99 541.998c0 -43.333 5.83203 -73.332 17.499 -89.999s26.834 -25 45.501 -25c9.33301 0 17.833 1.66699 25.5 5
s14.167 9.16602 19.5 17.499s9.5 20 12.5 35s4.5 34.167 4.5 57.5c0 22.667 -1.5 41.5 -4.5 56.5s-7.16699 26.833 -12.5 35.5s-11.833 14.667 -19.5 18s-16.167 5 -25.5 5c-10 0 -18.833 -1.66699 -26.5 -5s-14.167 -9.33301 -19.5 -18s-9.5 -20.5 -12.5 -35.5
s-4.5 -33.833 -4.5 -56.5z" />
    <glyph glyph-name="guillemotright" unicode="&#xbb;" horiz-adv-x="386" 
d="M208 268l-127 -228l-49 32l81 154l38 41l-38 36l-85 151l48 33zM357 268l-129 -230l-51 33l83 155l38 41l-38 36l-88 152l51 34z" />
    <glyph glyph-name="onequarter" unicode="&#xbc;" horiz-adv-x="683" 
d="M505 713l49 -27l-384 -698l-50 28zM636 94h-65v-96h-61v96h-165v34l181 300h45v-278h65v-56zM510 275l7 53h-4l-18 -50l-59 -102l-27 -30l41 4h60v125zM135 595l6 36l-22 -29l-59 -41l-26 44l124 102h41v-427h-64v315z" />
    <glyph glyph-name="onehalf" unicode="&#xbd;" horiz-adv-x="701" 
d="M505 713l49 -27l-384 -698l-50 28zM640 315c0 -21.333 -2.83203 -42.167 -8.49902 -62.5s-13.334 -40.333 -23.001 -60s-21 -39 -34 -58l-40.5 -56.5l-37 -32v-2l46 15h112v-59h-238v32c14 14 30.167 31.833 48.5 53.5s35.833 44.834 52.5 69.501s30.667 50 42 76
s17 50.667 17 74c0 20 -5.16699 35.333 -15.5 46s-23.166 16 -38.499 16c-14.667 0 -28.834 -2.33301 -42.501 -7s-25.167 -10.334 -34.5 -17.001l-20 52c13.333 10.667 29.833 18.667 49.5 24s39.167 8 58.5 8c34 0 60.167 -9.66699 78.5 -29s27.5 -47 27.5 -83z
M135.001 594.999l6 36l-22 -29l-59 -41l-26 44l124 102h41v-427h-64v315z" />
    <glyph glyph-name="threequarters" unicode="&#xbe;" horiz-adv-x="710" 
d="M533 713l49 -27l-384 -698l-50 28zM664 94h-65v-96h-61v96h-165v34l181 300h45v-278h65v-56zM538 275l7 53h-4l-18 -50l-59 -102l-27 -30l41 4h60v125zM131 330c25.333 0 44.5 6.83496 57.5 20.502s19.167 32.834 18.5 57.501
c0.666992 21.333 -4.83301 38.666 -16.5 51.999s-31.167 20 -58.5 20h-44v23l77 119l29 27l-41 -6h-105v57h211v-32l-82 -126l-21 -17v-3l20 3c30 0 53.5 -10.5 70.5 -31.5s25.167 -49.5 24.5 -85.5c0.666992 -40.667 -11.5 -73.334 -36.5 -98.001s-57.5 -37 -97.5 -37
c-19.333 0 -36.333 1.66699 -51 5s-27.667 7.66602 -39 12.999l13 56c10 -5.33301 20.833 -9.5 32.5 -12.5s24.5 -4.5 38.5 -4.5z" />
    <glyph glyph-name="questiondown" unicode="&#xbf;" horiz-adv-x="358" 
d="M239.008 323.011c2 -29.3311 0.165039 -55.335 -5.50195 -78c-5.66602 -22.665 -13.499 -43.4971 -23.498 -62.4961c-10 -18.999 -20.833 -36.8311 -32.498 -53.4971c-11.666 -16.665 -22.832 -33.8311 -33.498 -51.4971
c-10.666 -17.665 -19.499 -36.3301 -26.499 -55.9951c-6.99902 -19.665 -10.499 -41.8301 -10.499 -66.4951c0 -30.665 6.66602 -55.3301 19.999 -73.9951c13.332 -18.666 35.9971 -27.999 67.9951 -27.999c19.333 0 38.332 3.5 56.9971 10.5
c18.665 6.99902 35.3311 15.832 49.9971 26.498l27.998 -55.9961c-19.999 -13.333 -41.8311 -24.332 -65.4961 -32.998c-23.665 -8.66699 -52.4961 -13 -86.4932 -13c-47.9971 0 -84.3281 13.999 -108.993 41.998c-24.665 27.998 -36.9971 66.3291 -36.9971 114.993
c0 28.665 3.66602 54.3301 10.999 76.9951s16.332 43.4971 26.998 62.4961s22.332 37.165 34.998 54.498c12.666 17.332 24.499 35.1641 35.498 53.4961c10.999 18.333 20.165 37.999 27.498 58.998s10.999 44.8311 10.999 71.4961h59.9971zM254.005 454.997
c0 -18.665 -4.5 -32.6641 -13.499 -41.9971c-9 -9.33301 -21.166 -13.999 -36.498 -13.999c-15.333 0 -27.499 4.66602 -36.498 13.999s-13.499 23.332 -13.499 41.9971c0 19.332 4.5 33.6641 13.499 42.9971s21.165 13.999 36.498 13.999
c15.332 0 27.498 -4.66602 36.498 -13.999c8.99902 -9.33301 13.499 -23.665 13.499 -42.9971z" />
    <glyph glyph-name="Agrave" unicode="&#xc0;" horiz-adv-x="473" 
d="M333 196h-198l-56 -196h-74l211 711h41l211 -711h-78zM155 263h160l-61 216l-19 105h-2l-19 -107zM302 752h-65l-127 97v21h99z" />
    <glyph glyph-name="Aacute" unicode="&#xc1;" horiz-adv-x="473" 
d="M333 196h-198l-56 -196h-74l211 711h41l211 -711h-78zM155 263h160l-61 216l-19 105h-2l-19 -107zM262 870h99v-21l-131 -97h-61z" />
    <glyph glyph-name="Acircumflex" unicode="&#xc2;" horiz-adv-x="473" 
d="M333 196h-198l-56 -196h-74l211 711h41l211 -711h-78zM155 263h160l-61 216l-19 105h-2l-19 -107zM213 870h50l102 -102v-21h-66l-47 49l-15 35l-15 -34l-52 -50h-64v22z" />
    <glyph glyph-name="Atilde" unicode="&#xc3;" horiz-adv-x="473" 
d="M333 196h-198l-56 -196h-74l211 711h41l211 -711h-78zM155 263h160l-61 216l-19 105h-2l-19 -107zM100 780c18.667 22.667 35.832 38.168 51.499 46.501s30.5 12.5 44.5 12.5c10.667 0 20.834 -1.66699 30.501 -5s19 -6.83301 28 -10.5l26 -10.5
c8.33301 -3.33301 16.833 -5 25.5 -5c7.33301 0 14.5 1.33301 21.5 4s14.167 8 21.5 16l26 -37c-16 -18.667 -31 -31.334 -45 -38.001s-27 -10 -39 -10c-10 0 -19.667 1.66699 -29 5s-18.5 6.83301 -27.5 10.5l-26.5 10.5c-8.66699 3.33301 -17.667 5 -27 5
s-18.5 -2 -27.5 -6s-18.833 -11.667 -29.5 -23z" />
    <glyph glyph-name="Adieresis" unicode="&#xc4;" horiz-adv-x="473" 
d="M333 196h-198l-56 -196h-74l211 711h41l211 -711h-78zM155 263h160l-61 216l-19 105h-2l-19 -107zM111 794c0 14 4.16699 25.333 12.5 34s19.833 13 34.5 13c14 0 25.167 -4.33301 33.5 -13s12.5 -20 12.5 -34s-4.16699 -25.167 -12.5 -33.5s-19.5 -12.5 -33.5 -12.5
c-14.667 0 -26.167 4.16699 -34.5 12.5s-12.5 19.5 -12.5 33.5zM269 794c0 14 4.16699 25.333 12.5 34s19.5 13 33.5 13c14.667 0 26.167 -4.33301 34.5 -13s12.5 -20 12.5 -34s-4.16699 -25.167 -12.5 -33.5s-19.833 -12.5 -34.5 -12.5c-14 0 -25.167 4.16699 -33.5 12.5
s-12.5 19.5 -12.5 33.5z" />
    <glyph glyph-name="Aring" unicode="&#xc5;" horiz-adv-x="473" 
d="M148 768c0 24.667 6.99902 44.999 20.999 60.999s37 23.667 69 23c28.667 0.666992 50.834 -6.16602 66.501 -20.499s23.5 -35.5 23.5 -63.5c0 -20.667 -5.33301 -38.167 -16 -52.5s-26.667 -23.833 -48 -28.5l204 -687h-78l-57 196h-198l-56 -196h-74l204 687
c-20 5.33301 -35.167 14.833 -45.5 28.5s-15.5 31.167 -15.5 52.5zM154.999 262.999h160l-61 216l-19 105h-2l-19 -107zM201.999 767.999c0 -12 2.83203 -21.833 8.49902 -29.5s14.834 -11.5 27.501 -11.5c24 0 36 13.667 36 41c0 28.667 -12 43.334 -36 44.001
c-24 -0.666992 -36 -15.334 -36 -44.001z" />
    <glyph glyph-name="AE" unicode="&#xc6;" horiz-adv-x="683" 
d="M315 589l-26 -98l-103 -225h132v323h-3zM318 199h-165l-90 -199h-81l335 700h313v-69h-237v-237h217v-69h-217v-256h241v-69h-316v199z" />
    <glyph glyph-name="Ccedilla" unicode="&#xc7;" horiz-adv-x="458" 
d="M430 27c-14 -12 -31.335 -21 -52.002 -27s-42.667 -9.66699 -66 -11l-14 -32c43.333 -10 65 -35 65 -75c0 -26 -9.5 -47.5 -28.5 -64.5s-44.5 -25.5 -76.5 -25.5c-13.333 0 -25.666 1.33301 -36.999 4l7 39c15.333 -1.33301 27.5 -1 36.5 1s15.833 5 20.5 9
s7.66699 8.5 9 13.5s2 9.83301 2 14.5c0 18.667 -23 31 -69 37l35 80c-32 2.66699 -61.5 11.5 -88.5 26.5s-50.167 37 -69.5 66s-34.333 65.5 -45 109.5s-16 96.667 -16 158c0 66.667 6.83301 123 20.5 169s31.834 83.333 54.501 112s48.834 49.334 78.501 62.001
s60.167 19 91.5 19c32 0 58.5 -2.33301 79.5 -7s39.167 -10.334 54.5 -17.001l-18 -68c-13.333 7.33301 -29 13 -47 17s-38.667 6 -62 6s-45.333 -5.16699 -66 -15.5s-39 -27 -55 -50s-28.667 -53.167 -38 -90.5s-14 -83 -14 -137c0 -97.333 16.667 -170.333 50 -219
s77.666 -73 132.999 -73c22.667 0 43 3.16699 61 9.5s33.333 13.833 46 22.5z" />
    <glyph glyph-name="Egrave" unicode="&#xc8;" horiz-adv-x="429" 
d="M64 700h311v-69h-236v-237h217v-69h-217v-256h241v-69h-316v700zM267 752h-65l-127 97v21h99z" />
    <glyph glyph-name="Eacute" unicode="&#xc9;" horiz-adv-x="429" 
d="M64 700h311v-69h-236v-237h217v-69h-217v-256h241v-69h-316v700zM258 870h99v-21l-131 -97h-61z" />
    <glyph glyph-name="Ecircumflex" unicode="&#xca;" horiz-adv-x="429" 
d="M64 700h311v-69h-236v-237h217v-69h-217v-256h241v-69h-316v700zM192 870h50l102 -102v-21h-66l-47 49l-15 35l-15 -34l-52 -50h-64v22z" />
    <glyph glyph-name="Edieresis" unicode="&#xcb;" horiz-adv-x="429" 
d="M64 700h311v-69h-236v-237h217v-69h-217v-256h241v-69h-316v700zM90 794c0 14 4.16699 25.333 12.5 34s19.833 13 34.5 13c14 0 25.167 -4.33301 33.5 -13s12.5 -20 12.5 -34s-4.16699 -25.167 -12.5 -33.5s-19.5 -12.5 -33.5 -12.5
c-14.667 0 -26.167 4.16699 -34.5 12.5s-12.5 19.5 -12.5 33.5zM248 794c0 14 4.16699 25.333 12.5 34s19.5 13 33.5 13c14.667 0 26.167 -4.33301 34.5 -13s12.5 -20 12.5 -34s-4.16699 -25.167 -12.5 -33.5s-19.833 -12.5 -34.5 -12.5c-14 0 -25.167 4.16699 -33.5 12.5
s-12.5 19.5 -12.5 33.5z" />
    <glyph glyph-name="Igrave" unicode="&#xcc;" horiz-adv-x="233" 
d="M79 700h75v-700h-75v700zM191 752h-65l-127 97v21h99z" />
    <glyph glyph-name="Iacute" unicode="&#xcd;" horiz-adv-x="233" 
d="M79 700h75v-700h-75v700zM141 870h99v-21l-131 -97h-61z" />
    <glyph glyph-name="Icircumflex" unicode="&#xce;" horiz-adv-x="233" 
d="M79 700h75v-700h-75v700zM94 870h50l102 -102v-21h-66l-47 49l-15 35l-15 -34l-52 -50h-64v22z" />
    <glyph glyph-name="Idieresis" unicode="&#xcf;" horiz-adv-x="233" 
d="M79 700h75v-700h-75v700zM-8 794c0 14 4.16699 25.333 12.5 34s19.833 13 34.5 13c14 0 25.167 -4.33301 33.5 -13s12.5 -20 12.5 -34s-4.16699 -25.167 -12.5 -33.5s-19.5 -12.5 -33.5 -12.5c-14.667 0 -26.167 4.16699 -34.5 12.5s-12.5 19.5 -12.5 33.5zM150 794
c0 14 4.16699 25.333 12.5 34s19.5 13 33.5 13c14.667 0 26.167 -4.33301 34.5 -13s12.5 -20 12.5 -34s-4.16699 -25.167 -12.5 -33.5s-19.833 -12.5 -34.5 -12.5c-14 0 -25.167 4.16699 -33.5 12.5s-12.5 19.5 -12.5 33.5z" />
    <glyph glyph-name="Eth" unicode="&#xd0;" horiz-adv-x="531" 
d="M-1 393l70.999 -0.000976562v307c10.667 2 22.5 3.5 35.5 4.5s26.167 1.66699 39.5 2l39.5 1c13 0.333008 25.167 0.5 36.5 0.5c48.667 0 90 -8.33301 124 -25s61.667 -40.5 83 -71.5s36.666 -68.167 45.999 -111.5s14 -91.666 14 -144.999c0 -48 -4.5 -94 -13.5 -138
s-24.167 -82.667 -45.5 -116s-49.5 -60 -84.5 -80s-78.833 -30 -131.5 -30c-8.66699 0 -19.667 0.166992 -33 0.5s-27.166 1 -41.499 2s-27.666 1.83301 -39.999 2.5s-21.833 1.66699 -28.5 3v335h-71v59zM224.999 638.999l-21.501 0.00292969
c-7.66699 0 -15.167 -0.333008 -22.5 -1s-14.166 -1.33398 -20.499 -2.00098s-11.5 -1.33398 -15.5 -2.00098v-241h117v-59h-117v-270c2.66699 -0.666992 7.5 -1.16699 14.5 -1.5l22 -1l22 -1c7 -0.333008 12.167 -0.5 15.5 -0.5c36.667 0 67.334 8 92.001 24
s44.167 37.5 58.5 64.5s24.5 58.333 30.5 94s9 73.5 9 113.5c0 35.333 -2.66699 70 -8 104s-14.833 64.167 -28.5 90.5s-32.334 47.666 -56.001 63.999s-54.167 24.5 -91.5 24.5z" />
    <glyph glyph-name="Ntilde" unicode="&#xd1;" horiz-adv-x="538" 
d="M171 444l-43 110h-3l11 -110v-444h-72v711h45l259 -454l41 -105h4l-11 105v443h72v-711h-46zM135 780c18.667 22.667 35.832 38.168 51.499 46.501s30.5 12.5 44.5 12.5c10.667 0 20.834 -1.66699 30.501 -5s19 -6.83301 28 -10.5l26 -10.5
c8.33301 -3.33301 16.833 -5 25.5 -5c7.33301 0 14.5 1.33301 21.5 4s14.167 8 21.5 16l26 -37c-16 -18.667 -31 -31.334 -45 -38.001s-27 -10 -39 -10c-10 0 -19.667 1.66699 -29 5s-18.5 6.83301 -27.5 10.5l-26.5 10.5c-8.66699 3.33301 -17.667 5 -27 5
s-18.5 -2 -27.5 -6s-18.833 -11.667 -29.5 -23z" />
    <glyph glyph-name="Ograve" unicode="&#xd2;" horiz-adv-x="549" 
d="M43 350c0 118.667 19 208.667 57 270s96 92 174 92c42 0 77.667 -8.5 107 -25.5s53.166 -41.167 71.499 -72.5s31.833 -69.333 40.5 -114s13 -94.667 13 -150c0 -118.667 -19.167 -208.667 -57.5 -270s-96.5 -92 -174.5 -92c-41.333 0 -76.666 8.5 -105.999 25.5
s-53.333 41.167 -72 72.5s-32.167 69.333 -40.5 114s-12.5 94.667 -12.5 150zM122 350c0 -39.333 2.83398 -76.667 8.50098 -112s14.5 -66.333 26.5 -93s27.667 -48 47 -64s42.666 -24 69.999 -24c50 0 88 24 114 72s39 121.667 39 221c0 38.667 -2.83301 75.667 -8.5 111
s-14.5 66.5 -26.5 93.5s-27.667 48.5 -47 64.5s-43 24 -71 24c-49.333 0 -87 -24 -113 -72s-39 -121.667 -39 -221zM333.001 751.999h-65l-127 97v21h99z" />
    <glyph glyph-name="Oacute" unicode="&#xd3;" horiz-adv-x="549" 
d="M43 350c0 118.667 19 208.667 57 270s96 92 174 92c42 0 77.667 -8.5 107 -25.5s53.166 -41.167 71.499 -72.5s31.833 -69.333 40.5 -114s13 -94.667 13 -150c0 -118.667 -19.167 -208.667 -57.5 -270s-96.5 -92 -174.5 -92c-41.333 0 -76.666 8.5 -105.999 25.5
s-53.333 41.167 -72 72.5s-32.167 69.333 -40.5 114s-12.5 94.667 -12.5 150zM122 350c0 -39.333 2.83398 -76.667 8.50098 -112s14.5 -66.333 26.5 -93s27.667 -48 47 -64s42.666 -24 69.999 -24c50 0 88 24 114 72s39 121.667 39 221c0 38.667 -2.83301 75.667 -8.5 111
s-14.5 66.5 -26.5 93.5s-27.667 48.5 -47 64.5s-43 24 -71 24c-49.333 0 -87 -24 -113 -72s-39 -121.667 -39 -221zM335.001 869.999h99v-21l-131 -97h-61z" />
    <glyph glyph-name="Ocircumflex" unicode="&#xd4;" horiz-adv-x="549" 
d="M43 350c0 118.667 19 208.667 57 270s96 92 174 92c42 0 77.667 -8.5 107 -25.5s53.166 -41.167 71.499 -72.5s31.833 -69.333 40.5 -114s13 -94.667 13 -150c0 -118.667 -19.167 -208.667 -57.5 -270s-96.5 -92 -174.5 -92c-41.333 0 -76.666 8.5 -105.999 25.5
s-53.333 41.167 -72 72.5s-32.167 69.333 -40.5 114s-12.5 94.667 -12.5 150zM122 350c0 -39.333 2.83398 -76.667 8.50098 -112s14.5 -66.333 26.5 -93s27.667 -48 47 -64s42.666 -24 69.999 -24c50 0 88 24 114 72s39 121.667 39 221c0 38.667 -2.83301 75.667 -8.5 111
s-14.5 66.5 -26.5 93.5s-27.667 48.5 -47 64.5s-43 24 -71 24c-49.333 0 -87 -24 -113 -72s-39 -121.667 -39 -221zM250.001 869.999h50l102 -102v-21h-66l-47 49l-15 35l-15 -34l-52 -50h-64v22z" />
    <glyph glyph-name="Otilde" unicode="&#xd5;" horiz-adv-x="549" 
d="M43 350c0 118.667 19 208.667 57 270s96 92 174 92c42 0 77.667 -8.5 107 -25.5s53.166 -41.167 71.499 -72.5s31.833 -69.333 40.5 -114s13 -94.667 13 -150c0 -118.667 -19.167 -208.667 -57.5 -270s-96.5 -92 -174.5 -92c-41.333 0 -76.666 8.5 -105.999 25.5
s-53.333 41.167 -72 72.5s-32.167 69.333 -40.5 114s-12.5 94.667 -12.5 150zM122 350c0 -39.333 2.83398 -76.667 8.50098 -112s14.5 -66.333 26.5 -93s27.667 -48 47 -64s42.666 -24 69.999 -24c50 0 88 24 114 72s39 121.667 39 221c0 38.667 -2.83301 75.667 -8.5 111
s-14.5 66.5 -26.5 93.5s-27.667 48.5 -47 64.5s-43 24 -71 24c-49.333 0 -87 -24 -113 -72s-39 -121.667 -39 -221zM139.001 779.999c18.667 22.667 35.832 38.168 51.499 46.501s30.5 12.5 44.5 12.5c10.667 0 20.834 -1.66699 30.501 -5s19 -6.83301 28 -10.5l26 -10.5
c8.33301 -3.33301 16.833 -5 25.5 -5c7.33301 0 14.5 1.33301 21.5 4s14.167 8 21.5 16l26 -37c-16 -18.667 -31 -31.334 -45 -38.001s-27 -10 -39 -10c-10 0 -19.667 1.66699 -29 5s-18.5 6.83301 -27.5 10.5l-26.5 10.5c-8.66699 3.33301 -17.667 5 -27 5
s-18.5 -2 -27.5 -6s-18.833 -11.667 -29.5 -23z" />
    <glyph glyph-name="Odieresis" unicode="&#xd6;" horiz-adv-x="549" 
d="M43 350c0 118.667 19 208.667 57 270s96 92 174 92c42 0 77.667 -8.5 107 -25.5s53.166 -41.167 71.499 -72.5s31.833 -69.333 40.5 -114s13 -94.667 13 -150c0 -118.667 -19.167 -208.667 -57.5 -270s-96.5 -92 -174.5 -92c-41.333 0 -76.666 8.5 -105.999 25.5
s-53.333 41.167 -72 72.5s-32.167 69.333 -40.5 114s-12.5 94.667 -12.5 150zM122 350c0 -39.333 2.83398 -76.667 8.50098 -112s14.5 -66.333 26.5 -93s27.667 -48 47 -64s42.666 -24 69.999 -24c50 0 88 24 114 72s39 121.667 39 221c0 38.667 -2.83301 75.667 -8.5 111
s-14.5 66.5 -26.5 93.5s-27.667 48.5 -47 64.5s-43 24 -71 24c-49.333 0 -87 -24 -113 -72s-39 -121.667 -39 -221zM149.001 793.999c0 14 4.16699 25.333 12.5 34s19.833 13 34.5 13c14 0 25.167 -4.33301 33.5 -13s12.5 -20 12.5 -34s-4.16699 -25.167 -12.5 -33.5
s-19.5 -12.5 -33.5 -12.5c-14.667 0 -26.167 4.16699 -34.5 12.5s-12.5 19.5 -12.5 33.5zM307.001 793.999c0 14 4.16699 25.333 12.5 34s19.5 13 33.5 13c14.667 0 26.167 -4.33301 34.5 -13s12.5 -20 12.5 -34s-4.16699 -25.167 -12.5 -33.5s-19.833 -12.5 -34.5 -12.5
c-14 0 -25.167 4.16699 -33.5 12.5s-12.5 19.5 -12.5 33.5z" />
    <glyph glyph-name="multiply" unicode="&#xd7;" horiz-adv-x="415" 
d="M104 513l104 -122l105 122l49 -46l-109 -128l109 -130l-49 -45l-105 122l-105 -123l-50 45l111 131l-110 128z" />
    <glyph glyph-name="Oslash" unicode="&#xd8;" horiz-adv-x="549" 
d="M43 350c0 118.667 19 208.667 57 270s96 92 174 92c30 0 56.833 -4.5 80.5 -13.5s44.167 -21.833 61.5 -38.5l30 53l48 -27l-41 -73c18.667 -32 32.167 -70 40.5 -114s12.5 -93.667 12.5 -149c0 -118.667 -19.167 -208.667 -57.5 -270s-96.5 -92 -174.5 -92
c-58 0 -104.667 16.667 -140 50l-27 -50l-49 28l38 69c-18.667 32 -32.167 70.167 -40.5 114.5s-12.5 94.5 -12.5 150.5zM122 350c0 -32.667 1.83301 -63.833 5.5 -93.5s9.5 -57.167 17.5 -82.5l230 412c-12 18 -26.333 32 -43 42s-36 15 -58 15c-49.333 0 -87 -24 -113 -72
s-39 -121.667 -39 -221zM427 350.001c0 32 -1.83203 62.666 -5.49902 91.999s-9.5 56.333 -17.5 81l-229 -412c12 -17.333 26.167 -30.666 42.5 -39.999s35.166 -14 56.499 -14c50 0 88 24 114 72s39 121.667 39 221z" />
    <glyph glyph-name="Ugrave" unicode="&#xd9;" horiz-adv-x="521" 
d="M385 700l71.999 0.000976562v-469c0 -84.667 -16.5 -145.834 -49.5 -183.501s-79.833 -56.5 -140.5 -56.5c-70.667 0 -122.167 18.333 -154.5 55s-48.5 93 -48.5 169v485h75v-446c0 -36 2.33301 -66.333 7 -91s12.334 -44.667 23.001 -60s24 -26.333 40 -33
s35.667 -10 59 -10c44 0 74.5 15.333 91.5 46s25.5 80 25.5 148v446zM325.999 752.001h-65l-127 97v21h99z" />
    <glyph glyph-name="Uacute" unicode="&#xda;" horiz-adv-x="521" 
d="M385 700l71.999 0.000976562v-469c0 -84.667 -16.5 -145.834 -49.5 -183.501s-79.833 -56.5 -140.5 -56.5c-70.667 0 -122.167 18.333 -154.5 55s-48.5 93 -48.5 169v485h75v-446c0 -36 2.33301 -66.333 7 -91s12.334 -44.667 23.001 -60s24 -26.333 40 -33
s35.667 -10 59 -10c44 0 74.5 15.333 91.5 46s25.5 80 25.5 148v446zM310.999 870.001h99v-21l-131 -97h-61z" />
    <glyph glyph-name="Ucircumflex" unicode="&#xdb;" horiz-adv-x="521" 
d="M385 700l71.999 0.000976562v-469c0 -84.667 -16.5 -145.834 -49.5 -183.501s-79.833 -56.5 -140.5 -56.5c-70.667 0 -122.167 18.333 -154.5 55s-48.5 93 -48.5 169v485h75v-446c0 -36 2.33301 -66.333 7 -91s12.334 -44.667 23.001 -60s24 -26.333 40 -33
s35.667 -10 59 -10c44 0 74.5 15.333 91.5 46s25.5 80 25.5 148v446zM239.999 870.001h50l102 -102v-21h-66l-47 49l-15 35l-15 -34l-52 -50h-64v22z" />
    <glyph glyph-name="Udieresis" unicode="&#xdc;" horiz-adv-x="521" 
d="M385 700l71.999 0.000976562v-469c0 -84.667 -16.5 -145.834 -49.5 -183.501s-79.833 -56.5 -140.5 -56.5c-70.667 0 -122.167 18.333 -154.5 55s-48.5 93 -48.5 169v485h75v-446c0 -36 2.33301 -66.333 7 -91s12.334 -44.667 23.001 -60s24 -26.333 40 -33
s35.667 -10 59 -10c44 0 74.5 15.333 91.5 46s25.5 80 25.5 148v446zM134.999 794.001c0 14 4.16699 25.333 12.5 34s19.833 13 34.5 13c14 0 25.167 -4.33301 33.5 -13s12.5 -20 12.5 -34s-4.16699 -25.167 -12.5 -33.5s-19.5 -12.5 -33.5 -12.5
c-14.667 0 -26.167 4.16699 -34.5 12.5s-12.5 19.5 -12.5 33.5zM292.999 794.001c0 14 4.16699 25.333 12.5 34s19.5 13 33.5 13c14.667 0 26.167 -4.33301 34.5 -13s12.5 -20 12.5 -34s-4.16699 -25.167 -12.5 -33.5s-19.833 -12.5 -34.5 -12.5
c-14 0 -25.167 4.16699 -33.5 12.5s-12.5 19.5 -12.5 33.5z" />
    <glyph glyph-name="Yacute" unicode="&#xdd;" horiz-adv-x="455" 
d="M191 278l-186 422h88l126 -305l13 -61h2l13 63l122 303h81l-184 -421v-279h-75v278zM282 870h99v-21l-131 -97h-61z" />
    <glyph glyph-name="Thorn" unicode="&#xde;" horiz-adv-x="452" 
d="M65 700l74.998 -0.000976562v-78c20.667 2 42 3 64 3c26.667 0 53 -3.16699 79 -9.5s49.5 -17.5 70.5 -33.5s38 -38 51 -66s19.5 -63.667 19.5 -107c0 -42 -6.16699 -77.667 -18.5 -107s-28.666 -53 -48.999 -71s-43.666 -31.167 -69.999 -39.5s-53.5 -12.5 -81.5 -12.5
h-13c-6 0 -12.333 0.166992 -19 0.5s-13.167 0.833008 -19.5 1.5s-10.833 1.33398 -13.5 2.00098v-183h-75v700zM139.998 251.999c2.66699 -1.33301 6.83301 -2.16797 12.5 -2.50098s11.5 -0.833008 17.5 -1.5s11.833 -1 17.5 -1h12.5c18.667 0 36.667 2.33301 54 7
s32.666 13.167 45.999 25.5s24.166 29 32.499 50s12.5 47.833 12.5 80.5c0 27.333 -3.83301 50.333 -11.5 69s-17.667 33.834 -30 45.501s-26.833 20 -43.5 25s-34 7.5 -52 7.5c-13.333 0 -26.166 -0.333008 -38.499 -1s-22.166 -2 -29.499 -4v-300z" />
    <glyph glyph-name="germandbls" unicode="&#xdf;" horiz-adv-x="488" 
d="M77 500l0.00683594 25.0039c0 66 13.833 112.667 41.5 140s65.167 41 112.5 41c22 0 42.5 -3 61.5 -9s35.667 -14.833 50 -26.5s25.5 -26 33.5 -43s12 -36.5 12 -58.5s-5.33301 -40.833 -16 -56.5s-22.167 -29.834 -34.5 -42.501s-23.833 -25.334 -34.5 -38.001
s-16 -27 -16 -43c0 -15.333 4.16699 -28.333 12.5 -39s18.666 -20.667 30.999 -30s25.833 -18.833 40.5 -28.5s28.167 -21.167 40.5 -34.5s22.666 -29.5 30.999 -48.5s12.5 -42.5 12.5 -70.5c0 -18.667 -3.33301 -37 -10 -55s-16.334 -34 -29.001 -48
s-28.334 -25.333 -47.001 -34s-40.334 -13 -65.001 -13s-44.834 2 -60.501 6s-30.834 10.667 -45.501 20l20 61c14 -8 26.167 -13.833 36.5 -17.5s24.833 -5.5 43.5 -5.5c22.667 0 42.5 7.66699 59.5 23s25.5 35.666 25.5 60.999c0 20.667 -4.16699 37.834 -12.5 51.501
s-18.833 25.667 -31.5 36s-26.167 20 -40.5 29s-27.833 19.333 -40.5 31s-23.167 25.5 -31.5 41.5s-12.5 36.333 -12.5 61c0 22 5.33301 40.667 16 56s22.334 29.5 35.001 42.5s24.334 25.833 35.001 38.5s16 27 16 43c0 11.333 -2.5 21.666 -7.5 30.999
s-11.5 17.166 -19.5 23.499s-16.833 11.333 -26.5 15s-19.5 5.5 -29.5 5.5c-14.667 0 -27.334 -2.16699 -38.001 -6.5s-19.334 -11.833 -26.001 -22.5s-11.667 -25.167 -15 -43.5s-5 -41.5 -5 -69.5v-499h-72v435h-61v65h61z" />
    <glyph glyph-name="agrave" unicode="&#xe0;" horiz-adv-x="400" 
d="M54 470c19.333 12 42.8301 21.332 70.4971 27.999s56.834 10 87.501 10c28 0 50.5 -4.16699 67.5 -12.5s30.333 -19.666 40 -33.999s16 -30.666 19 -48.999s4.5 -37.5 4.5 -57.5c0 -40 -0.833008 -79 -2.5 -117s-2.5 -74 -2.5 -108c0 -25.333 0.833008 -48.833 2.5 -70.5
s4.83398 -42.167 9.50098 -61.5h-55l-17 59h-4c-10 -17.333 -24.667 -32.333 -44 -45s-45.333 -19 -78 -19c-36 0 -65.5 12.5 -88.5 37.5s-34.5 59.5 -34.5 103.5c0 28.667 4.83301 52.667 14.5 72s23.334 35 41.001 47s38.667 20.5 63 25.5s51.5 7.5 81.5 7.5h20
c6.66699 0 13.667 -0.333008 21 -1c2 20.667 3 39 3 55c0 38 -5.66699 64.667 -17 80s-32 23 -62 23c-18.667 0 -39 -2.83301 -61 -8.5s-40.333 -12.834 -55 -21.501zM270.997 227.999c-6.66699 0.666992 -13.332 1.16797 -19.999 1.50098s-13.334 0.5 -20.001 0.5
c-16 0 -31.667 -1.33301 -47 -4s-29 -7.33398 -41 -14.001s-21.5 -15.667 -28.5 -27s-10.5 -25.666 -10.5 -42.999c0 -26.667 6.5 -47.334 19.5 -62.001s29.833 -22 50.5 -22c28 0 49.667 6.66699 65 20s26 28 32 44v106zM243.999 571h-41l-94 128v21h83z" />
    <glyph glyph-name="aacute" unicode="&#xe1;" horiz-adv-x="400" 
d="M54 470c19.333 12 42.8301 21.332 70.4971 27.999s56.834 10 87.501 10c28 0 50.5 -4.16699 67.5 -12.5s30.333 -19.666 40 -33.999s16 -30.666 19 -48.999s4.5 -37.5 4.5 -57.5c0 -40 -0.833008 -79 -2.5 -117s-2.5 -74 -2.5 -108c0 -25.333 0.833008 -48.833 2.5 -70.5
s4.83398 -42.167 9.50098 -61.5h-55l-17 59h-4c-10 -17.333 -24.667 -32.333 -44 -45s-45.333 -19 -78 -19c-36 0 -65.5 12.5 -88.5 37.5s-34.5 59.5 -34.5 103.5c0 28.667 4.83301 52.667 14.5 72s23.334 35 41.001 47s38.667 20.5 63 25.5s51.5 7.5 81.5 7.5h20
c6.66699 0 13.667 -0.333008 21 -1c2 20.667 3 39 3 55c0 38 -5.66699 64.667 -17 80s-32 23 -62 23c-18.667 0 -39 -2.83301 -61 -8.5s-40.333 -12.834 -55 -21.501zM270.997 227.999c-6.66699 0.666992 -13.332 1.16797 -19.999 1.50098s-13.334 0.5 -20.001 0.5
c-16 0 -31.667 -1.33301 -47 -4s-29 -7.33398 -41 -14.001s-21.5 -15.667 -28.5 -27s-10.5 -25.666 -10.5 -42.999c0 -26.667 6.5 -47.334 19.5 -62.001s29.833 -22 50.5 -22c28 0 49.667 6.66699 65 20s26 28 32 44v106zM193.999 720h78v-21l-82 -128h-43z" />
    <glyph glyph-name="acircumflex" unicode="&#xe2;" horiz-adv-x="400" 
d="M54 470c19.333 12 42.8301 21.332 70.4971 27.999s56.834 10 87.501 10c28 0 50.5 -4.16699 67.5 -12.5s30.333 -19.666 40 -33.999s16 -30.666 19 -48.999s4.5 -37.5 4.5 -57.5c0 -40 -0.833008 -79 -2.5 -117s-2.5 -74 -2.5 -108c0 -25.333 0.833008 -48.833 2.5 -70.5
s4.83398 -42.167 9.50098 -61.5h-55l-17 59h-4c-10 -17.333 -24.667 -32.333 -44 -45s-45.333 -19 -78 -19c-36 0 -65.5 12.5 -88.5 37.5s-34.5 59.5 -34.5 103.5c0 28.667 4.83301 52.667 14.5 72s23.334 35 41.001 47s38.667 20.5 63 25.5s51.5 7.5 81.5 7.5h20
c6.66699 0 13.667 -0.333008 21 -1c2 20.667 3 39 3 55c0 38 -5.66699 64.667 -17 80s-32 23 -62 23c-18.667 0 -39 -2.83301 -61 -8.5s-40.333 -12.834 -55 -21.501zM270.997 227.999c-6.66699 0.666992 -13.332 1.16797 -19.999 1.50098s-13.334 0.5 -20.001 0.5
c-16 0 -31.667 -1.33301 -47 -4s-29 -7.33398 -41 -14.001s-21.5 -15.667 -28.5 -27s-10.5 -25.666 -10.5 -42.999c0 -26.667 6.5 -47.334 19.5 -62.001s29.833 -22 50.5 -22c28 0 49.667 6.66699 65 20s26 28 32 44v106zM189.999 732h35l89 -182h-63l-32 66l-16 58l-17 -58
l-36 -66h-59z" />
    <glyph glyph-name="atilde" unicode="&#xe3;" horiz-adv-x="400" 
d="M54 470c19.333 12 42.8301 21.332 70.4971 27.999s56.834 10 87.501 10c28 0 50.5 -4.16699 67.5 -12.5s30.333 -19.666 40 -33.999s16 -30.666 19 -48.999s4.5 -37.5 4.5 -57.5c0 -40 -0.833008 -79 -2.5 -117s-2.5 -74 -2.5 -108c0 -25.333 0.833008 -48.833 2.5 -70.5
s4.83398 -42.167 9.50098 -61.5h-55l-17 59h-4c-10 -17.333 -24.667 -32.333 -44 -45s-45.333 -19 -78 -19c-36 0 -65.5 12.5 -88.5 37.5s-34.5 59.5 -34.5 103.5c0 28.667 4.83301 52.667 14.5 72s23.334 35 41.001 47s38.667 20.5 63 25.5s51.5 7.5 81.5 7.5h20
c6.66699 0 13.667 -0.333008 21 -1c2 20.667 3 39 3 55c0 38 -5.66699 64.667 -17 80s-32 23 -62 23c-18.667 0 -39 -2.83301 -61 -8.5s-40.333 -12.834 -55 -21.501zM270.997 227.999c-6.66699 0.666992 -13.332 1.16797 -19.999 1.50098s-13.334 0.5 -20.001 0.5
c-16 0 -31.667 -1.33301 -47 -4s-29 -7.33398 -41 -14.001s-21.5 -15.667 -28.5 -27s-10.5 -25.666 -10.5 -42.999c0 -26.667 6.5 -47.334 19.5 -62.001s29.833 -22 50.5 -22c28 0 49.667 6.66699 65 20s26 28 32 44v106zM79.999 653c18 22.667 34 38.1641 48 46.4971
s26.667 12.5 38 12.5c9.33301 0 18 -2 26 -6s15.833 -8.16699 23.5 -12.5l22 -12.5c7 -4 14.5 -6 22.5 -6c6 0 12.167 1.5 18.5 4.5s13.166 8.5 20.499 16.5l23 -38c-16 -19.333 -30.167 -32.666 -42.5 -39.999s-23.833 -11 -34.5 -11c-9.33301 0 -18 1.83301 -26 5.5
s-15.833 7.83398 -23.5 12.501s-15.167 8.83398 -22.5 12.501s-15 5.5 -23 5.5c-7.33301 0 -14.666 -1.83301 -21.999 -5.5s-15.333 -10.167 -24 -19.5z" />
    <glyph glyph-name="adieresis" unicode="&#xe4;" horiz-adv-x="400" 
d="M54 470c19.333 12 42.8301 21.332 70.4971 27.999s56.834 10 87.501 10c28 0 50.5 -4.16699 67.5 -12.5s30.333 -19.666 40 -33.999s16 -30.666 19 -48.999s4.5 -37.5 4.5 -57.5c0 -40 -0.833008 -79 -2.5 -117s-2.5 -74 -2.5 -108c0 -25.333 0.833008 -48.833 2.5 -70.5
s4.83398 -42.167 9.50098 -61.5h-55l-17 59h-4c-10 -17.333 -24.667 -32.333 -44 -45s-45.333 -19 -78 -19c-36 0 -65.5 12.5 -88.5 37.5s-34.5 59.5 -34.5 103.5c0 28.667 4.83301 52.667 14.5 72s23.334 35 41.001 47s38.667 20.5 63 25.5s51.5 7.5 81.5 7.5h20
c6.66699 0 13.667 -0.333008 21 -1c2 20.667 3 39 3 55c0 38 -5.66699 64.667 -17 80s-32 23 -62 23c-18.667 0 -39 -2.83301 -61 -8.5s-40.333 -12.834 -55 -21.501zM270.997 227.999c-6.66699 0.666992 -13.332 1.16797 -19.999 1.50098s-13.334 0.5 -20.001 0.5
c-16 0 -31.667 -1.33301 -47 -4s-29 -7.33398 -41 -14.001s-21.5 -15.667 -28.5 -27s-10.5 -25.666 -10.5 -42.999c0 -26.667 6.5 -47.334 19.5 -62.001s29.833 -22 50.5 -22c28 0 49.667 6.66699 65 20s26 28 32 44v106zM77.999 653c0 15.333 3.83301 27.333 11.5 36
s18.167 13 31.5 13s23.833 -4.33301 31.5 -13s11.5 -20.667 11.5 -36c0 -14 -3.83301 -25.333 -11.5 -34s-18.167 -13 -31.5 -13s-23.833 4.33301 -31.5 13s-11.5 20 -11.5 34zM236.999 653c0 15.333 3.83301 27.333 11.5 36s18.167 13 31.5 13s23.833 -4.33301 31.5 -13
s11.5 -20.667 11.5 -36c0 -14 -3.83301 -25.333 -11.5 -34s-18.167 -13 -31.5 -13s-23.833 4.33301 -31.5 13s-11.5 20 -11.5 34z" />
    <glyph glyph-name="aring" unicode="&#xe5;" horiz-adv-x="400" 
d="M54 470c19.333 12 42.8301 21.332 70.4971 27.999s56.834 10 87.501 10c28 0 50.5 -4.16699 67.5 -12.5s30.333 -19.666 40 -33.999s16 -30.666 19 -48.999s4.5 -37.5 4.5 -57.5c0 -40 -0.833008 -79 -2.5 -117s-2.5 -74 -2.5 -108c0 -25.333 0.833008 -48.833 2.5 -70.5
s4.83398 -42.167 9.50098 -61.5h-55l-17 59h-4c-10 -17.333 -24.667 -32.333 -44 -45s-45.333 -19 -78 -19c-36 0 -65.5 12.5 -88.5 37.5s-34.5 59.5 -34.5 103.5c0 28.667 4.83301 52.667 14.5 72s23.334 35 41.001 47s38.667 20.5 63 25.5s51.5 7.5 81.5 7.5h20
c6.66699 0 13.667 -0.333008 21 -1c2 20.667 3 39 3 55c0 38 -5.66699 64.667 -17 80s-32 23 -62 23c-18.667 0 -39 -2.83301 -61 -8.5s-40.333 -12.834 -55 -21.501zM270.997 227.999c-6.66699 0.666992 -13.332 1.16797 -19.999 1.50098s-13.334 0.5 -20.001 0.5
c-16 0 -31.667 -1.33301 -47 -4s-29 -7.33398 -41 -14.001s-21.5 -15.667 -28.5 -27s-10.5 -25.666 -10.5 -42.999c0 -26.667 6.5 -47.334 19.5 -62.001s29.833 -22 50.5 -22c28 0 49.667 6.66699 65 20s26 28 32 44v106zM117.999 643c0 28 7.33301 49.833 22 65.5
s34.667 23.5 60 23.5c24 0 43.833 -7 59.5 -21s23.5 -36.667 23.5 -68c0 -26.667 -7.5 -48 -22.5 -64s-35.167 -24 -60.5 -24s-45.333 7.5 -60 22.5s-22 36.833 -22 65.5zM165.999 643c0 -15.333 3.33301 -26.833 10 -34.5s14.667 -11.5 24 -11.5
c10.667 0 19.167 3.66699 25.5 11s9.5 19 9.5 35s-3.5 27.833 -10.5 35.5s-15.167 11.5 -24.5 11.5s-17.333 -3.66699 -24 -11s-10 -19.333 -10 -36z" />
    <glyph glyph-name="ae" unicode="&#xe6;" horiz-adv-x="642" 
d="M173 57c14 0 26.501 2.16602 37.501 6.49902s20.5 10 28.5 17s14.667 14.667 20 23s9.33301 16.833 12 25.5v101c-6.66699 0.666992 -13.334 1.16699 -20.001 1.5s-13.334 0.5 -20.001 0.5c-16 0 -31.667 -1.33301 -47 -4s-29 -7.33398 -41 -14.001
s-21.5 -15.667 -28.5 -27s-10.5 -25.666 -10.5 -42.999c0 -23.333 6.33301 -43.666 19 -60.999s29.334 -26 50.001 -26zM294.001 72.999c-13.333 -23.333 -31.498 -42.666 -54.498 -57.999s-51.5 -23 -85.5 -23c-37.333 0 -67.5 13 -90.5 39s-34.5 61 -34.5 105
c0 29.333 4.83301 53.833 14.5 73.5s23.167 35.334 40.5 47.001s38 20 62 25s50.667 7.5 80 7.5c7.33301 0 14.666 -0.166992 21.999 -0.5s14.666 -0.833008 21.999 -1.5c2 20.667 3 39 3 55c0 38 -5.66699 64.5 -17 79.5s-32 22.5 -62 22.5
c-18.667 0 -39.334 -3.33301 -62.001 -10s-41.667 -15.334 -57 -26.001l-22 56c20.667 15.333 44.834 26.5 72.501 33.5s56.5 10.5 86.5 10.5c56 0 92.333 -21.333 109 -64c13.333 24 31.833 41.333 55.5 52s47.167 16 70.5 16c18.667 0 37.167 -2.5 55.5 -7.5
s34.833 -14.667 49.5 -29s26.5 -34.333 35.5 -60s13.5 -58.834 13.5 -99.501c0 -11.333 -0.5 -23.333 -1.5 -36s-2.16699 -26 -3.5 -40h-253c0.666992 -61.333 10 -107.833 28 -139.5s49.667 -47.5 95 -47.5c18.667 0 37 3.33301 55 10s31.667 14 41 22l26 -53
c-16.667 -13.333 -37 -24 -61 -32s-50.667 -12 -80 -12c-33.333 0 -63 7.16699 -89 21.5s-45.333 35.5 -58 63.5h-6zM447.003 446.999c-30 0 -54 -12 -72 -36s-28.667 -61.333 -32 -112h188c1.33301 50 -5.5 87.167 -20.5 111.5s-36.167 36.5 -63.5 36.5z" />
    <glyph glyph-name="ccedilla" unicode="&#xe7;" horiz-adv-x="356" 
d="M335 25c-13.333 -10 -28.001 -17.833 -44.001 -23.5s-32.667 -9.5 -50 -11.5l-14 -33c43.333 -10 65 -35 65 -75c0 -26 -9.5 -47.5 -28.5 -64.5s-44.5 -25.5 -76.5 -25.5c-13.333 0 -25.666 1.33301 -36.999 4l7 39c15.333 -1.33301 27.5 -1 36.5 1s15.833 5 20.5 9
s7.66699 8.5 9 13.5s2 9.83301 2 14.5c0 18.667 -23 31 -69 37l35 79c-28 2.66699 -51.833 10.834 -71.5 24.501s-35.5 31.667 -47.5 54s-20.833 49 -26.5 80s-8.5 65.167 -8.5 102.5c0 85.333 15.167 150.333 45.5 195s73.833 67 130.5 67c26 0 48.333 -2.33301 67 -7
s34.667 -10.667 48 -18l-20 -62c-25.333 14.667 -54.333 22 -87 22c-36 0 -63.167 -15.833 -81.5 -47.5s-27.5 -81.5 -27.5 -149.5c0 -27.333 2 -52.833 6 -76.5s10.667 -44.334 20 -62.001s21.333 -31.5 36 -41.5s33 -15 55 -15c17.333 0 33.5 2.83301 48.5 8.5
s27.167 12.5 36.5 20.5z" />
    <glyph glyph-name="egrave" unicode="&#xe8;" horiz-adv-x="413" 
d="M358 34c-16 -14.667 -36.332 -26.001 -60.999 -34.001s-50.667 -12 -78 -12c-31.333 0 -58.5 6.16699 -81.5 18.5s-42 30 -57 53s-26 50.5 -33 82.5s-10.5 68 -10.5 108c0 85.333 15.667 150.333 47 195s75.666 67 132.999 67c18.667 0 37.167 -2.33301 55.5 -7
s34.833 -14 49.5 -28s26.5 -33.667 35.5 -59s13.5 -58.333 13.5 -99c0 -11.333 -0.5 -23.5 -1.5 -36.5s-2.16699 -26.5 -3.5 -40.5h-254c0 -28.667 2.33301 -54.667 7 -78s12 -43.166 22 -59.499s22.833 -29 38.5 -38s35.167 -13.5 58.5 -13.5c18 0 35.833 3.33301 53.5 10
s31.167 14.667 40.5 24zM302.001 301.999c1.33301 50 -5.66699 86.667 -21 110s-36.333 35 -63 35c-30.667 0 -55 -11.667 -73 -35s-28.667 -60 -32 -110h189zM261.001 570.999h-41l-94 128v21h83z" />
    <glyph glyph-name="eacute" unicode="&#xe9;" horiz-adv-x="413" 
d="M358 34c-16 -14.667 -36.332 -26.001 -60.999 -34.001s-50.667 -12 -78 -12c-31.333 0 -58.5 6.16699 -81.5 18.5s-42 30 -57 53s-26 50.5 -33 82.5s-10.5 68 -10.5 108c0 85.333 15.667 150.333 47 195s75.666 67 132.999 67c18.667 0 37.167 -2.33301 55.5 -7
s34.833 -14 49.5 -28s26.5 -33.667 35.5 -59s13.5 -58.333 13.5 -99c0 -11.333 -0.5 -23.5 -1.5 -36.5s-2.16699 -26.5 -3.5 -40.5h-254c0 -28.667 2.33301 -54.667 7 -78s12 -43.166 22 -59.499s22.833 -29 38.5 -38s35.167 -13.5 58.5 -13.5c18 0 35.833 3.33301 53.5 10
s31.167 14.667 40.5 24zM302.001 301.999c1.33301 50 -5.66699 86.667 -21 110s-36.333 35 -63 35c-30.667 0 -55 -11.667 -73 -35s-28.667 -60 -32 -110h189zM232.001 719.999h78v-21l-82 -128h-43z" />
    <glyph glyph-name="ecircumflex" unicode="&#xea;" horiz-adv-x="413" 
d="M358 34c-16 -14.667 -36.332 -26.001 -60.999 -34.001s-50.667 -12 -78 -12c-31.333 0 -58.5 6.16699 -81.5 18.5s-42 30 -57 53s-26 50.5 -33 82.5s-10.5 68 -10.5 108c0 85.333 15.667 150.333 47 195s75.666 67 132.999 67c18.667 0 37.167 -2.33301 55.5 -7
s34.833 -14 49.5 -28s26.5 -33.667 35.5 -59s13.5 -58.333 13.5 -99c0 -11.333 -0.5 -23.5 -1.5 -36.5s-2.16699 -26.5 -3.5 -40.5h-254c0 -28.667 2.33301 -54.667 7 -78s12 -43.166 22 -59.499s22.833 -29 38.5 -38s35.167 -13.5 58.5 -13.5c18 0 35.833 3.33301 53.5 10
s31.167 14.667 40.5 24zM302.001 301.999c1.33301 50 -5.66699 86.667 -21 110s-36.333 35 -63 35c-30.667 0 -55 -11.667 -73 -35s-28.667 -60 -32 -110h189zM197.001 731.999h35l89 -182h-63l-32 66l-16 58l-17 -58l-36 -66h-59z" />
    <glyph glyph-name="edieresis" unicode="&#xeb;" horiz-adv-x="413" 
d="M358 34c-16 -14.667 -36.332 -26.001 -60.999 -34.001s-50.667 -12 -78 -12c-31.333 0 -58.5 6.16699 -81.5 18.5s-42 30 -57 53s-26 50.5 -33 82.5s-10.5 68 -10.5 108c0 85.333 15.667 150.333 47 195s75.666 67 132.999 67c18.667 0 37.167 -2.33301 55.5 -7
s34.833 -14 49.5 -28s26.5 -33.667 35.5 -59s13.5 -58.333 13.5 -99c0 -11.333 -0.5 -23.5 -1.5 -36.5s-2.16699 -26.5 -3.5 -40.5h-254c0 -28.667 2.33301 -54.667 7 -78s12 -43.166 22 -59.499s22.833 -29 38.5 -38s35.167 -13.5 58.5 -13.5c18 0 35.833 3.33301 53.5 10
s31.167 14.667 40.5 24zM302.001 301.999c1.33301 50 -5.66699 86.667 -21 110s-36.333 35 -63 35c-30.667 0 -55 -11.667 -73 -35s-28.667 -60 -32 -110h189zM93.001 652.999c0 15.333 3.83301 27.333 11.5 36s18.167 13 31.5 13s23.833 -4.33301 31.5 -13
s11.5 -20.667 11.5 -36c0 -14 -3.83301 -25.333 -11.5 -34s-18.167 -13 -31.5 -13s-23.833 4.33301 -31.5 13s-11.5 20 -11.5 34zM252.001 652.999c0 15.333 3.83301 27.333 11.5 36s18.167 13 31.5 13s23.833 -4.33301 31.5 -13s11.5 -20.667 11.5 -36
c0 -14 -3.83301 -25.333 -11.5 -34s-18.167 -13 -31.5 -13s-23.833 4.33301 -31.5 13s-11.5 20 -11.5 34z" />
    <glyph glyph-name="igrave" unicode="&#xec;" horiz-adv-x="217" 
d="M72 500h72v-500h-72v500zM140 571h-41l-94 128v21h83z" />
    <glyph glyph-name="iacute" unicode="&#xed;" horiz-adv-x="217" 
d="M72 500h72v-500h-72v500zM123 720h78v-21l-82 -128h-43z" />
    <glyph glyph-name="icircumflex" unicode="&#xee;" horiz-adv-x="217" 
d="M72 500h72v-500h-72v500zM94 732h35l89 -182h-63l-32 66l-16 58l-17 -58l-36 -66h-59z" />
    <glyph glyph-name="idieresis" unicode="&#xef;" horiz-adv-x="217" 
d="M72 500h72v-500h-72v500zM-13 653c0 15.333 3.83301 27.333 11.5 36s18.167 13 31.5 13s23.833 -4.33301 31.5 -13s11.5 -20.667 11.5 -36c0 -14 -3.83301 -25.333 -11.5 -34s-18.167 -13 -31.5 -13s-23.833 4.33301 -31.5 13s-11.5 20 -11.5 34zM146 653
c0 15.333 3.83301 27.333 11.5 36s18.167 13 31.5 13s23.833 -4.33301 31.5 -13s11.5 -20.667 11.5 -36c0 -14 -3.83301 -25.333 -11.5 -34s-18.167 -13 -31.5 -13s-23.833 4.33301 -31.5 13s-11.5 20 -11.5 34z" />
    <glyph glyph-name="eth" unicode="&#xf0;" 
d="M169 589l57 38.001c-21.333 17.333 -43.666 31 -66.999 41l32 44c10.667 -5.33301 23.334 -12 38.001 -20s30 -19 46 -33l60 40l24 -39l-50 -33c13.333 -15.333 26 -33.333 38 -54s22.667 -44.5 32 -71.5s16.666 -57.5 21.999 -91.5s8 -72 8 -114
c0 -57.333 -4.83301 -105.5 -14.5 -144.5s-22.834 -70.667 -39.501 -95s-36.167 -41.833 -58.5 -52.5s-46.5 -16 -72.5 -16c-32 0 -59.667 6.33301 -83 19s-42.333 30.5 -57 53.5s-25.5 50.667 -32.5 83s-10.5 68.166 -10.5 107.499c0 38 4 72.833 12 104.5
s19.833 59 35.5 82s34.667 40.833 57 53.5s47.833 19 76.5 19c23.333 0 44 -4 62 -12s31.667 -18 41 -30c-7.33301 25.333 -16.5 48.5 -27.5 69.5s-23.5 39.833 -37.5 56.5l-66 -43zM115 251.001c0 -70 10.666 -120.336 31.999 -151.003s48.666 -46 81.999 -46
c15.333 0 29.666 4.33301 42.999 13s24.833 22.334 34.5 41.001s17.334 43 23.001 73s8.5 66.333 8.5 109c0 6.66699 -0.166992 14.834 -0.5 24.501s-0.833008 19.334 -1.5 29.001s-1.5 18.834 -2.5 27.501l-2.5 21c-9.33301 17.333 -23.666 30.333 -42.999 39
s-38.666 13 -57.999 13c-20 0 -37.167 -4.66699 -51.5 -14s-26.333 -22.5 -36 -39.5s-16.667 -37.333 -21 -61s-6.5 -49.834 -6.5 -78.501z" />
    <glyph glyph-name="ntilde" unicode="&#xf1;" horiz-adv-x="439" 
d="M315 0v305c0 50 -5.83301 86.167 -17.5 108.5s-32.5 33.5 -62.5 33.5c-26.667 0 -48.667 -8 -66 -24s-30 -35.667 -38 -59v-364h-72v500h52l13 -53h3c12.667 18 29.834 33.333 51.501 46s47.5 19 77.5 19c21.333 0 40.166 -3 56.499 -9s30 -16.167 41 -30.5
s19.333 -33.5 25 -57.5s8.5 -54.333 8.5 -91v-324h-72zM100 653c18 22.667 34 38.1641 48 46.4971s26.667 12.5 38 12.5c9.33301 0 18 -2 26 -6s15.833 -8.16699 23.5 -12.5l22 -12.5c7 -4 14.5 -6 22.5 -6c6 0 12.167 1.5 18.5 4.5s13.166 8.5 20.499 16.5l23 -38
c-16 -19.333 -30.167 -32.666 -42.5 -39.999s-23.833 -11 -34.5 -11c-9.33301 0 -18 1.83301 -26 5.5s-15.833 7.83398 -23.5 12.501s-15.167 8.83398 -22.5 12.501s-15 5.5 -23 5.5c-7.33301 0 -14.666 -1.83301 -21.999 -5.5s-15.333 -10.167 -24 -19.5z" />
    <glyph glyph-name="ograve" unicode="&#xf2;" horiz-adv-x="432" 
d="M37 250c0 90 15.5 156.167 46.5 198.5s75.167 63.5 132.5 63.5c61.333 0 106.5 -21.667 135.5 -65s43.5 -109 43.5 -197c0 -90.667 -15.667 -157 -47 -199s-75.333 -63 -132 -63c-61.333 0 -106.5 21.667 -135.5 65s-43.5 109 -43.5 197zM112 250
c0 -29.333 1.83301 -55.999 5.5 -79.999s9.66699 -44.667 18 -62s19.166 -30.833 32.499 -40.5s29.333 -14.5 48 -14.5c34.667 0 60.667 15.5 78 46.5s26 81.167 26 150.5c0 28.667 -1.83301 55.167 -5.5 79.5s-9.66699 45.166 -18 62.499s-19.166 30.833 -32.499 40.5
s-29.333 14.5 -48 14.5c-34 0 -59.833 -15.667 -77.5 -47s-26.5 -81.333 -26.5 -150zM254 571.001h-41l-94 128v21h83z" />
    <glyph glyph-name="oacute" unicode="&#xf3;" horiz-adv-x="432" 
d="M37 250c0 90 15.5 156.167 46.5 198.5s75.167 63.5 132.5 63.5c61.333 0 106.5 -21.667 135.5 -65s43.5 -109 43.5 -197c0 -90.667 -15.667 -157 -47 -199s-75.333 -63 -132 -63c-61.333 0 -106.5 21.667 -135.5 65s-43.5 109 -43.5 197zM112 250
c0 -29.333 1.83301 -55.999 5.5 -79.999s9.66699 -44.667 18 -62s19.166 -30.833 32.499 -40.5s29.333 -14.5 48 -14.5c34.667 0 60.667 15.5 78 46.5s26 81.167 26 150.5c0 28.667 -1.83301 55.167 -5.5 79.5s-9.66699 45.166 -18 62.499s-19.166 30.833 -32.499 40.5
s-29.333 14.5 -48 14.5c-34 0 -59.833 -15.667 -77.5 -47s-26.5 -81.333 -26.5 -150zM227 720.001h78v-21l-82 -128h-43z" />
    <glyph glyph-name="ocircumflex" unicode="&#xf4;" horiz-adv-x="432" 
d="M37 250c0 90 15.5 156.167 46.5 198.5s75.167 63.5 132.5 63.5c61.333 0 106.5 -21.667 135.5 -65s43.5 -109 43.5 -197c0 -90.667 -15.667 -157 -47 -199s-75.333 -63 -132 -63c-61.333 0 -106.5 21.667 -135.5 65s-43.5 109 -43.5 197zM112 250
c0 -29.333 1.83301 -55.999 5.5 -79.999s9.66699 -44.667 18 -62s19.166 -30.833 32.499 -40.5s29.333 -14.5 48 -14.5c34.667 0 60.667 15.5 78 46.5s26 81.167 26 150.5c0 28.667 -1.83301 55.167 -5.5 79.5s-9.66699 45.166 -18 62.499s-19.166 30.833 -32.499 40.5
s-29.333 14.5 -48 14.5c-34 0 -59.833 -15.667 -77.5 -47s-26.5 -81.333 -26.5 -150zM206 732.001h35l89 -182h-63l-32 66l-16 58l-17 -58l-36 -66h-59z" />
    <glyph glyph-name="otilde" unicode="&#xf5;" horiz-adv-x="432" 
d="M37 250c0 90 15.5 156.167 46.5 198.5s75.167 63.5 132.5 63.5c61.333 0 106.5 -21.667 135.5 -65s43.5 -109 43.5 -197c0 -90.667 -15.667 -157 -47 -199s-75.333 -63 -132 -63c-61.333 0 -106.5 21.667 -135.5 65s-43.5 109 -43.5 197zM112 250
c0 -29.333 1.83301 -55.999 5.5 -79.999s9.66699 -44.667 18 -62s19.166 -30.833 32.499 -40.5s29.333 -14.5 48 -14.5c34.667 0 60.667 15.5 78 46.5s26 81.167 26 150.5c0 28.667 -1.83301 55.167 -5.5 79.5s-9.66699 45.166 -18 62.499s-19.166 30.833 -32.499 40.5
s-29.333 14.5 -48 14.5c-34 0 -59.833 -15.667 -77.5 -47s-26.5 -81.333 -26.5 -150zM96 653.001c18 22.667 34 38.1641 48 46.4971s26.667 12.5 38 12.5c9.33301 0 18 -2 26 -6s15.833 -8.16699 23.5 -12.5l22 -12.5c7 -4 14.5 -6 22.5 -6c6 0 12.167 1.5 18.5 4.5
s13.166 8.5 20.499 16.5l23 -38c-16 -19.333 -30.167 -32.666 -42.5 -39.999s-23.833 -11 -34.5 -11c-9.33301 0 -18 1.83301 -26 5.5s-15.833 7.83398 -23.5 12.501s-15.167 8.83398 -22.5 12.501s-15 5.5 -23 5.5c-7.33301 0 -14.666 -1.83301 -21.999 -5.5
s-15.333 -10.167 -24 -19.5z" />
    <glyph glyph-name="odieresis" unicode="&#xf6;" horiz-adv-x="432" 
d="M37 250c0 90 15.5 156.167 46.5 198.5s75.167 63.5 132.5 63.5c61.333 0 106.5 -21.667 135.5 -65s43.5 -109 43.5 -197c0 -90.667 -15.667 -157 -47 -199s-75.333 -63 -132 -63c-61.333 0 -106.5 21.667 -135.5 65s-43.5 109 -43.5 197zM112 250
c0 -29.333 1.83301 -55.999 5.5 -79.999s9.66699 -44.667 18 -62s19.166 -30.833 32.499 -40.5s29.333 -14.5 48 -14.5c34.667 0 60.667 15.5 78 46.5s26 81.167 26 150.5c0 28.667 -1.83301 55.167 -5.5 79.5s-9.66699 45.166 -18 62.499s-19.166 30.833 -32.499 40.5
s-29.333 14.5 -48 14.5c-34 0 -59.833 -15.667 -77.5 -47s-26.5 -81.333 -26.5 -150zM94 653.001c0 15.333 3.83301 27.333 11.5 36s18.167 13 31.5 13s23.833 -4.33301 31.5 -13s11.5 -20.667 11.5 -36c0 -14 -3.83301 -25.333 -11.5 -34s-18.167 -13 -31.5 -13
s-23.833 4.33301 -31.5 13s-11.5 20 -11.5 34zM253 653.001c0 15.333 3.83301 27.333 11.5 36s18.167 13 31.5 13s23.833 -4.33301 31.5 -13s11.5 -20.667 11.5 -36c0 -14 -3.83301 -25.333 -11.5 -34s-18.167 -13 -31.5 -13s-23.833 4.33301 -31.5 13s-11.5 20 -11.5 34z
" />
    <glyph glyph-name="divide" unicode="&#xf7;" horiz-adv-x="415" 
d="M35 373h344v-67h-344v67zM157 508c0 18.667 4.5 32.667 13.5 42s21.167 14 36.5 14s27.5 -4.66699 36.5 -14s13.5 -23.333 13.5 -42c0 -19.333 -4.5 -33.666 -13.5 -42.999s-21.167 -14 -36.5 -14s-27.5 4.66699 -36.5 14s-13.5 23.666 -13.5 42.999zM157 171
c0 18.667 4.5 32.667 13.5 42s21.167 14 36.5 14s27.5 -4.66699 36.5 -14s13.5 -23.333 13.5 -42c0 -19.333 -4.5 -33.666 -13.5 -42.999s-21.167 -14 -36.5 -14s-27.5 4.66699 -36.5 14s-13.5 23.666 -13.5 42.999z" />
    <glyph glyph-name="oslash" unicode="&#xf8;" horiz-adv-x="436" 
d="M40 250c0 87.333 15.498 152.833 46.498 196.5s75.167 65.5 132.5 65.5c38.667 0 71.334 -9.66699 98.001 -29l19 32l49 -30l-27 -48c13.333 -22 23.333 -48.667 30 -80s10 -67 10 -107c0 -88.667 -15.5 -154.5 -46.5 -197.5s-75.167 -64.5 -132.5 -64.5
c-41.333 0 -75.666 10.667 -102.999 32l-21 -34l-49 32l30 51c-24 44 -36 104.333 -36 181zM322.998 250c0 21.333 -0.832031 41.5 -2.49902 60.5s-4.83398 36.167 -9.50098 51.5l-160 -275c17.333 -22.667 40 -34 68 -34c34.667 0 60.667 15.667 78 47s26 81.333 26 150z
M114.999 250c0 -20 0.666016 -39 1.99902 -57s4 -34.667 8 -50l157 275c-8 9.33301 -17.167 16.5 -27.5 21.5s-22.166 7.5 -35.499 7.5c-34 0 -59.833 -15.667 -77.5 -47s-26.5 -81.333 -26.5 -150z" />
    <glyph glyph-name="ugrave" unicode="&#xf9;" horiz-adv-x="434" 
d="M124 500l-0.000976562 -305.999c0 -50.667 5.16699 -86.834 15.5 -108.501s29.166 -32.5 56.499 -32.5c14 0 26.5 2.83301 37.5 8.5s20.833 13.167 29.5 22.5s16.334 20 23.001 32s12 24.333 16 37v347h72v-358c0 -24 0.833008 -48.833 2.5 -74.5
s4.16699 -48.167 7.5 -67.5h-51l-18 70h-3c-11.333 -22 -27.666 -41.167 -48.999 -57.5s-48 -24.5 -80 -24.5c-21.333 0 -40 2.66699 -56 8s-29.667 15 -41 29s-19.833 33.167 -25.5 57.5s-8.5 55.5 -8.5 93.5v324h72zM248.999 571.001h-41l-94 128v21h83z" />
    <glyph glyph-name="uacute" unicode="&#xfa;" horiz-adv-x="434" 
d="M124 500l-0.000976562 -305.999c0 -50.667 5.16699 -86.834 15.5 -108.501s29.166 -32.5 56.499 -32.5c14 0 26.5 2.83301 37.5 8.5s20.833 13.167 29.5 22.5s16.334 20 23.001 32s12 24.333 16 37v347h72v-358c0 -24 0.833008 -48.833 2.5 -74.5
s4.16699 -48.167 7.5 -67.5h-51l-18 70h-3c-11.333 -22 -27.666 -41.167 -48.999 -57.5s-48 -24.5 -80 -24.5c-21.333 0 -40 2.66699 -56 8s-29.667 15 -41 29s-19.833 33.167 -25.5 57.5s-8.5 55.5 -8.5 93.5v324h72zM225.999 720.001h78v-21l-82 -128h-43z" />
    <glyph glyph-name="ucircumflex" unicode="&#xfb;" horiz-adv-x="434" 
d="M124 500l-0.000976562 -305.999c0 -50.667 5.16699 -86.834 15.5 -108.501s29.166 -32.5 56.499 -32.5c14 0 26.5 2.83301 37.5 8.5s20.833 13.167 29.5 22.5s16.334 20 23.001 32s12 24.333 16 37v347h72v-358c0 -24 0.833008 -48.833 2.5 -74.5
s4.16699 -48.167 7.5 -67.5h-51l-18 70h-3c-11.333 -22 -27.666 -41.167 -48.999 -57.5s-48 -24.5 -80 -24.5c-21.333 0 -40 2.66699 -56 8s-29.667 15 -41 29s-19.833 33.167 -25.5 57.5s-8.5 55.5 -8.5 93.5v324h72zM202.999 732.001h35l89 -182h-63l-32 66l-16 58
l-17 -58l-36 -66h-59z" />
    <glyph glyph-name="udieresis" unicode="&#xfc;" horiz-adv-x="434" 
d="M124 500l-0.000976562 -305.999c0 -50.667 5.16699 -86.834 15.5 -108.501s29.166 -32.5 56.499 -32.5c14 0 26.5 2.83301 37.5 8.5s20.833 13.167 29.5 22.5s16.334 20 23.001 32s12 24.333 16 37v347h72v-358c0 -24 0.833008 -48.833 2.5 -74.5
s4.16699 -48.167 7.5 -67.5h-51l-18 70h-3c-11.333 -22 -27.666 -41.167 -48.999 -57.5s-48 -24.5 -80 -24.5c-21.333 0 -40 2.66699 -56 8s-29.667 15 -41 29s-19.833 33.167 -25.5 57.5s-8.5 55.5 -8.5 93.5v324h72zM94.999 653.001c0 15.333 3.83301 27.333 11.5 36
s18.167 13 31.5 13s23.833 -4.33301 31.5 -13s11.5 -20.667 11.5 -36c0 -14 -3.83301 -25.333 -11.5 -34s-18.167 -13 -31.5 -13s-23.833 4.33301 -31.5 13s-11.5 20 -11.5 34zM253.999 653.001c0 15.333 3.83301 27.333 11.5 36s18.167 13 31.5 13
s23.833 -4.33301 31.5 -13s11.5 -20.667 11.5 -36c0 -14 -3.83301 -25.333 -11.5 -34s-18.167 -13 -31.5 -13s-23.833 4.33301 -31.5 13s-11.5 20 -11.5 34z" />
    <glyph glyph-name="yacute" unicode="&#xfd;" horiz-adv-x="376" 
d="M183 177l21.002 -96.998h5l15 97l76 323h73l-119 -449c-9.33301 -36 -18.666 -69.667 -27.999 -101s-19.5 -58.5 -30.5 -81.5s-23.333 -41 -37 -54s-29.834 -19.5 -48.501 -19.5s-35 3 -49 9l12 68c9.33301 -3.33301 18.666 -4 27.999 -2s18.166 7.66699 26.499 17
s16 23.166 23 41.499s13.167 42.166 18.5 71.499l-162 500h82zM219.002 720.002h78v-21l-82 -128h-43z" />
    <glyph glyph-name="thorn" unicode="&#xfe;" horiz-adv-x="435" 
d="M59 700l71.9971 -0.000976562v-240h3c10.667 16 24.834 28.667 42.501 38s39.167 14 64.5 14c52.667 0 92 -19.667 118 -59s39 -103.666 39 -192.999c0 -42 -4.33301 -79.833 -13 -113.5s-21 -62.167 -37 -85.5s-35.333 -41.333 -58 -54s-48 -19 -76 -19
c-19.333 0 -35.166 1.33301 -47.499 4s-24.166 7 -35.499 13v-205h-72v900zM223.997 446.999c-23.333 0 -42.9971 -7.5 -58.9971 -22.5s-27.333 -35.833 -34 -62.5v-284c9.33301 -8 19.833 -14.167 31.5 -18.5s27.167 -6.5 46.5 -6.5c35.333 0 63.166 18 83.499 54
s30.5 87.333 30.5 154c0 28 -1.83301 53.333 -5.5 76s-9.33398 42.167 -17.001 58.5s-17.834 29 -30.501 38s-28 13.5 -46 13.5z" />
    <glyph glyph-name="ydieresis" unicode="&#xff;" horiz-adv-x="376" 
d="M183 177l21.002 -96.998h5l15 97l76 323h73l-119 -449c-9.33301 -36 -18.666 -69.667 -27.999 -101s-19.5 -58.5 -30.5 -81.5s-23.333 -41 -37 -54s-29.834 -19.5 -48.501 -19.5s-35 3 -49 9l12 68c9.33301 -3.33301 18.666 -4 27.999 -2s18.166 7.66699 26.499 17
s16 23.166 23 41.499s13.167 42.166 18.5 71.499l-162 500h82zM66.002 653.002c0 15.333 3.83301 27.333 11.5 36s18.167 13 31.5 13s23.833 -4.33301 31.5 -13s11.5 -20.667 11.5 -36c0 -14 -3.83301 -25.333 -11.5 -34s-18.167 -13 -31.5 -13s-23.833 4.33301 -31.5 13
s-11.5 20 -11.5 34zM225.002 653.002c0 15.333 3.83301 27.333 11.5 36s18.167 13 31.5 13s23.833 -4.33301 31.5 -13s11.5 -20.667 11.5 -36c0 -14 -3.83301 -25.333 -11.5 -34s-18.167 -13 -31.5 -13s-23.833 4.33301 -31.5 13s-11.5 20 -11.5 34z" />
    <glyph glyph-name="Amacron" unicode="&#x100;" horiz-adv-x="473" 
d="M333 196h-198l-56 -196h-74l211 711h41l211 -711h-78zM155 263h160l-61 216l-19 105h-2l-19 -107zM107 843h259v-62h-259v62z" />
    <glyph glyph-name="amacron" unicode="&#x101;" horiz-adv-x="400" 
d="M54 470c19.333 12 42.8301 21.332 70.4971 27.999s56.834 10 87.501 10c28 0 50.5 -4.16699 67.5 -12.5s30.333 -19.666 40 -33.999s16 -30.666 19 -48.999s4.5 -37.5 4.5 -57.5c0 -40 -0.833008 -79 -2.5 -117s-2.5 -74 -2.5 -108c0 -25.333 0.833008 -48.833 2.5 -70.5
s4.83398 -42.167 9.50098 -61.5h-55l-17 59h-4c-10 -17.333 -24.667 -32.333 -44 -45s-45.333 -19 -78 -19c-36 0 -65.5 12.5 -88.5 37.5s-34.5 59.5 -34.5 103.5c0 28.667 4.83301 52.667 14.5 72s23.334 35 41.001 47s38.667 20.5 63 25.5s51.5 7.5 81.5 7.5h20
c6.66699 0 13.667 -0.333008 21 -1c2 20.667 3 39 3 55c0 38 -5.66699 64.667 -17 80s-32 23 -62 23c-18.667 0 -39 -2.83301 -61 -8.5s-40.333 -12.834 -55 -21.501zM270.997 227.999c-6.66699 0.666992 -13.332 1.16797 -19.999 1.50098s-13.334 0.5 -20.001 0.5
c-16 0 -31.667 -1.33301 -47 -4s-29 -7.33398 -41 -14.001s-21.5 -15.667 -28.5 -27s-10.5 -25.666 -10.5 -42.999c0 -26.667 6.5 -47.334 19.5 -62.001s29.833 -22 50.5 -22c28 0 49.667 6.66699 65 20s26 28 32 44v106zM75.999 643h243v-59h-243v59z" />
    <glyph glyph-name="Abreve" unicode="&#x102;" horiz-adv-x="473" 
d="M333 196h-198l-56 -196h-74l211 711h41l211 -711h-78zM155 263h160l-61 216l-19 105h-2l-19 -107zM133 871c9.33301 -22.667 23.335 -41 42.002 -55s40.667 -21 66 -21c26 0 47.5 7.5 64.5 22.5s29.833 32.833 38.5 53.5l36 -16c-10 -42 -28.167 -73.333 -54.5 -94
s-54.833 -31 -85.5 -31c-28.667 0 -56.834 9.66699 -84.501 29s-47.834 50 -60.501 92z" />
    <glyph glyph-name="abreve" unicode="&#x103;" horiz-adv-x="400" 
d="M54 470c19.333 12 42.8301 21.332 70.4971 27.999s56.834 10 87.501 10c28 0 50.5 -4.16699 67.5 -12.5s30.333 -19.666 40 -33.999s16 -30.666 19 -48.999s4.5 -37.5 4.5 -57.5c0 -40 -0.833008 -79 -2.5 -117s-2.5 -74 -2.5 -108c0 -25.333 0.833008 -48.833 2.5 -70.5
s4.83398 -42.167 9.50098 -61.5h-55l-17 59h-4c-10 -17.333 -24.667 -32.333 -44 -45s-45.333 -19 -78 -19c-36 0 -65.5 12.5 -88.5 37.5s-34.5 59.5 -34.5 103.5c0 28.667 4.83301 52.667 14.5 72s23.334 35 41.001 47s38.667 20.5 63 25.5s51.5 7.5 81.5 7.5h20
c6.66699 0 13.667 -0.333008 21 -1c2 20.667 3 39 3 55c0 38 -5.66699 64.667 -17 80s-32 23 -62 23c-18.667 0 -39 -2.83301 -61 -8.5s-40.333 -12.834 -55 -21.501zM270.997 227.999c-6.66699 0.666992 -13.332 1.16797 -19.999 1.50098s-13.334 0.5 -20.001 0.5
c-16 0 -31.667 -1.33301 -47 -4s-29 -7.33398 -41 -14.001s-21.5 -15.667 -28.5 -27s-10.5 -25.666 -10.5 -42.999c0 -26.667 6.5 -47.334 19.5 -62.001s29.833 -22 50.5 -22c28 0 49.667 6.66699 65 20s26 28 32 44v106zM113.999 717c9.33301 -24 22 -43.166 38 -57.499
s33.667 -21.5 53 -21.5c18.667 0 35.167 7 49.5 21s25.833 33.333 34.5 58l37 -15c-1.33301 -17.333 -5.5 -33.833 -12.5 -49.5s-15.833 -29.334 -26.5 -41.001s-23.167 -21 -37.5 -28s-29.5 -10.5 -45.5 -10.5c-31.333 0 -58.833 11 -82.5 33s-39.167 53 -46.5 93z" />
    <glyph glyph-name="Aogonek" unicode="&#x104;" horiz-adv-x="473" 
d="M333 196l-197.999 0.00292969l-56 -196h-74l211 711h41l211 -711h-21c-14.667 -10.667 -26.167 -23.334 -34.5 -38.001s-12.5 -31.334 -12.5 -50.001c0.666992 -19.333 7.16699 -34.166 19.5 -44.499s30.833 -10.5 55.5 -0.5l10 -40
c-7.33301 -7.33301 -17.833 -13 -31.5 -17s-26.834 -6 -39.501 -6c-26.667 0 -47.667 8 -63 24s-23.333 36.667 -24 62c0.666992 25.333 7 47.166 19 65.499s28.333 33.166 49 44.499h-5zM155.001 263.003h160l-61 216l-19 105h-2l-19 -107z" />
    <glyph glyph-name="aogonek" unicode="&#x105;" horiz-adv-x="400" 
d="M54 470c19.333 12 42.832 21.3301 70.499 27.9971s56.834 10 87.501 10c28 0 50.5 -4.16699 67.5 -12.5s30.333 -19.666 40 -33.999s16 -30.666 19 -48.999s4.5 -37.5 4.5 -57.5c0 -40 -0.833008 -79 -2.5 -117s-2.5 -74 -2.5 -108c0 -25.333 0.833008 -48.833 2.5 -70.5
s4.83398 -42.167 9.50098 -61.5h-19c-14 -10.667 -25 -23.167 -33 -37.5s-12 -30.5 -12 -48.5c0.666992 -19.333 7.16699 -34.166 19.5 -44.499s30.833 -10.5 55.5 -0.5l10 -40c-7.33301 -7.33301 -17.833 -13 -31.5 -17s-26.834 -6 -39.501 -6
c-26.667 0 -47.834 8 -63.501 24s-23.5 36.667 -23.5 62c0 28 7.33301 51.5 22 70.5s33.667 34.167 57 45.5l-14 51h-4c-10 -17.333 -24.667 -32.333 -44 -45s-45.333 -19 -78 -19c-36 0 -65.5 12.5 -88.5 37.5s-34.5 59.5 -34.5 103.5c0 28.667 4.83301 52.667 14.5 72
s23.334 35 41.001 47s38.667 20.5 63 25.5s51.5 7.5 81.5 7.5h20c6.66699 0 13.667 -0.333008 21 -1c2 20.667 3 39.334 3 56.001c0 38 -5.66699 64.5 -17 79.5s-32 22.5 -62 22.5c-18.667 0 -39 -2.83301 -61 -8.5s-40.333 -12.834 -55 -21.501zM270.999 227.997
c-6.66699 0.666992 -13.501 1.16797 -20.501 1.50098s-13.833 0.5 -20.5 0.5c-16 0 -31.667 -1.33301 -47 -4s-28.833 -7.33398 -40.5 -14.001s-21 -15.667 -28 -27s-10.5 -25.666 -10.5 -42.999c0 -26.667 6.33301 -47.334 19 -62.001s29.334 -22 50.001 -22
c28 0 49.833 6.66699 65.5 20s26.5 28 32.5 44v106z" />
    <glyph glyph-name="Cacute" unicode="&#x106;" horiz-adv-x="458" 
d="M430 27c-16.667 -14 -37.668 -24 -63.001 -30s-52 -9 -80 -9c-35.333 0 -68 6.66699 -98 20s-55.833 34.5 -77.5 63.5s-38.5 66.5 -50.5 112.5s-18 101.333 -18 166c0 66.667 6.83301 123 20.5 169s31.834 83.333 54.501 112s48.834 49.334 78.501 62.001
s60.167 19 91.5 19c32 0 58.5 -2.33301 79.5 -7s39.167 -10.334 54.5 -17.001l-18 -68c-13.333 7.33301 -29 13 -47 17s-38.667 6 -62 6s-45.333 -5.16699 -66 -15.5s-39 -27 -55 -50s-28.667 -53.167 -38 -90.5s-14 -83 -14 -137c0 -97.333 16.667 -170.5 50 -219.5
s77.666 -73.5 132.999 -73.5c22.667 0 43 3.16699 61 9.5s33.333 13.833 46 22.5zM330.999 870h99v-21l-131 -97h-61z" />
    <glyph glyph-name="cacute" unicode="&#x107;" horiz-adv-x="356" 
d="M335 25c-16.667 -12.667 -35.668 -21.999 -57.001 -27.999s-43.666 -9 -66.999 -9c-32 0 -59 6.16699 -81 18.5s-39.833 30 -53.5 53s-23.667 50.667 -30 83s-9.5 68.166 -9.5 107.499c0 85.333 15.167 150.333 45.5 195s73.833 67 130.5 67c26 0 48.333 -2.33301 67 -7
s34.667 -10.667 48 -18l-20 -63c-26.667 15.333 -55.667 23 -87 23c-36 0 -63.167 -15.833 -81.5 -47.5s-27.5 -81.5 -27.5 -149.5c0 -27.333 2 -53 6 -77s10.667 -44.833 20 -62.5s21.333 -31.667 36 -42s33 -15.5 55 -15.5c17.333 0 33.5 3 48.5 9s27.167 13 36.5 21z
M231.999 720.001h78v-21l-82 -128h-43z" />
    <glyph glyph-name="Ccircumflex" unicode="&#x108;" horiz-adv-x="458" 
d="M430 27c-16.667 -14 -37.668 -24 -63.001 -30s-52 -9 -80 -9c-35.333 0 -68 6.66699 -98 20s-55.833 34.5 -77.5 63.5s-38.5 66.5 -50.5 112.5s-18 101.333 -18 166c0 66.667 6.83301 123 20.5 169s31.834 83.333 54.501 112s48.834 49.334 78.501 62.001
s60.167 19 91.5 19c32 0 58.5 -2.33301 79.5 -7s39.167 -10.334 54.5 -17.001l-18 -68c-13.333 7.33301 -29 13 -47 17s-38.667 6 -62 6s-45.333 -5.16699 -66 -15.5s-39 -27 -55 -50s-28.667 -53.167 -38 -90.5s-14 -83 -14 -137c0 -97.333 16.667 -170.5 50 -219.5
s77.666 -73.5 132.999 -73.5c22.667 0 43 3.16699 61 9.5s33.333 13.833 46 22.5zM254.999 870h50l102 -102v-21h-66l-47 49l-15 35l-15 -34l-52 -50h-64v22z" />
    <glyph glyph-name="ccircumflex" unicode="&#x109;" horiz-adv-x="356" 
d="M335 25c-16.667 -12.667 -35.668 -21.999 -57.001 -27.999s-43.666 -9 -66.999 -9c-32 0 -59 6.16699 -81 18.5s-39.833 30 -53.5 53s-23.667 50.667 -30 83s-9.5 68.166 -9.5 107.499c0 85.333 15.167 150.333 45.5 195s73.833 67 130.5 67c26 0 48.333 -2.33301 67 -7
s34.667 -10.667 48 -18l-20 -63c-26.667 15.333 -55.667 23 -87 23c-36 0 -63.167 -15.833 -81.5 -47.5s-27.5 -81.5 -27.5 -149.5c0 -27.333 2 -53 6 -77s10.667 -44.833 20 -62.5s21.333 -31.667 36 -42s33 -15.5 55 -15.5c17.333 0 33.5 3 48.5 9s27.167 13 36.5 21z
M186.999 732.001h35l89 -182h-63l-32 66l-16 58l-17 -58l-36 -66h-59z" />
    <glyph glyph-name="Ccaron" unicode="&#x10c;" horiz-adv-x="458" 
d="M430 27c-16.667 -14 -37.668 -24 -63.001 -30s-52 -9 -80 -9c-35.333 0 -68 6.66699 -98 20s-55.833 34.5 -77.5 63.5s-38.5 66.5 -50.5 112.5s-18 101.333 -18 166c0 66.667 6.83301 123 20.5 169s31.834 83.333 54.501 112s48.834 49.334 78.501 62.001
s60.167 19 91.5 19c32 0 58.5 -2.33301 79.5 -7s39.167 -10.334 54.5 -17.001l-18 -68c-13.333 7.33301 -29 13 -47 17s-38.667 6 -62 6s-45.333 -5.16699 -66 -15.5s-39 -27 -55 -50s-28.667 -53.167 -38 -90.5s-14 -83 -14 -137c0 -97.333 16.667 -170.5 50 -219.5
s77.666 -73.5 132.999 -73.5c22.667 0 43 3.16699 61 9.5s33.333 13.833 46 22.5zM307.999 746h-53l-102 103v21h69l47 -50l14 -34l15 33l50 51h66v-22z" />
    <glyph glyph-name="ccaron" unicode="&#x10d;" horiz-adv-x="356" 
d="M335 25c-16.667 -12.667 -35.668 -21.999 -57.001 -27.999s-43.666 -9 -66.999 -9c-32 0 -59 6.16699 -81 18.5s-39.833 30 -53.5 53s-23.667 50.667 -30 83s-9.5 68.166 -9.5 107.499c0 85.333 15.167 150.333 45.5 195s73.833 67 130.5 67c26 0 48.333 -2.33301 67 -7
s34.667 -10.667 48 -18l-20 -63c-26.667 15.333 -55.667 23 -87 23c-36 0 -63.167 -15.833 -81.5 -47.5s-27.5 -81.5 -27.5 -149.5c0 -27.333 2 -53 6 -77s10.667 -44.833 20 -62.5s21.333 -31.667 36 -42s33 -15.5 55 -15.5c17.333 0 33.5 3 48.5 9s27.167 13 36.5 21z
M221.999 550.001h-38l-93 182h68l31 -66l17 -58l17 58l36 66h61z" />
    <glyph glyph-name="Dcaron" unicode="&#x10e;" horiz-adv-x="525" 
d="M64 700c10.667 2 22.499 3.49902 35.499 4.49902s26.167 1.66699 39.5 2l39.5 1c13 0.333008 25.167 0.5 36.5 0.5c48.667 0 90 -8.33301 124 -25s61.667 -40.5 83 -71.5s36.666 -68.167 45.999 -111.5s14 -91.666 14 -144.999c0 -48 -4.5 -94 -13.5 -138
s-24.167 -82.667 -45.5 -116s-49.5 -60 -84.5 -80s-78.833 -30 -131.5 -30c-8.66699 0 -19.667 0.166992 -33 0.5s-27.166 1 -41.499 2s-27.666 1.83301 -39.999 2.5s-21.833 1.66699 -28.5 3v701zM218.999 638.999l-21.501 0.00292969
c-7.66699 0 -15.167 -0.333008 -22.5 -1s-14.166 -1.33398 -20.499 -2.00098s-11.5 -1.33398 -15.5 -2.00098v-570c2.66699 -0.666992 7.5 -1.16699 14.5 -1.5l22 -1l22 -1c7 -0.333008 12.167 -0.5 15.5 -0.5c36.667 0 67.334 8 92.001 24s44.167 37.5 58.5 64.5
s24.5 58.333 30.5 94s9 73.5 9 113.5c0 35.333 -2.66699 70 -8 104s-14.833 64.167 -28.5 90.5s-32.334 47.666 -56.001 63.999s-54.167 24.5 -91.5 24.5zM243.998 746.002h-53l-102 103v21h69l47 -50l14 -34l15 33l50 51h66v-22z" />
    <glyph glyph-name="dcaron" unicode="&#x10f;" horiz-adv-x="433" 
d="M374 172c0 -34 0.334961 -64.833 1.00195 -92.5s3 -54.834 7 -81.501h-49l-16 60h-4c-9.33301 -20 -24 -36.667 -44 -50s-44 -20 -72 -20c-54 0 -94.167 21 -120.5 63s-39.5 108 -39.5 198c0 85.333 16.167 150 48.5 194s76.833 66 133.5 66
c19.333 0 34.666 -1.16699 45.999 -3.5s23.666 -6.16602 36.999 -11.499v206h72v-528zM302.002 421c-9.33301 8 -19.834 13.832 -31.501 17.499s-27.167 5.5 -46.5 5.5c-35.333 0 -62.833 -16 -82.5 -48s-29.5 -81.333 -29.5 -148c0 -29.333 1.83301 -55.833 5.5 -79.5
s9.33398 -44.167 17.001 -61.5s17.667 -30.666 30 -39.999s27.5 -14 45.5 -14c48 0 78.667 28.333 92 85v283zM504.001 699.999c-1.33301 -19.333 -4.66699 -39.001 -10 -59.001s-11.666 -38.667 -18.999 -56s-14.833 -32.5 -22.5 -45.5s-13.834 -22.5 -18.501 -28.5l-30 15
c9.33301 24 16.333 51.333 21 82s7 61.334 7 92.001h72z" />
    <glyph glyph-name="Dcroat" unicode="&#x110;" horiz-adv-x="531" 
d="M-1 393l70.999 -0.000976562v307c10.667 2 22.5 3.5 35.5 4.5s26.167 1.66699 39.5 2l39.5 1c13 0.333008 25.167 0.5 36.5 0.5c48.667 0 90 -8.33301 124 -25s61.667 -40.5 83 -71.5s36.666 -68.167 45.999 -111.5s14 -91.666 14 -144.999c0 -48 -4.5 -94 -13.5 -138
s-24.167 -82.667 -45.5 -116s-49.5 -60 -84.5 -80s-78.833 -30 -131.5 -30c-8.66699 0 -19.667 0.166992 -33 0.5s-27.166 1 -41.499 2s-27.666 1.83301 -39.999 2.5s-21.833 1.66699 -28.5 3v335h-71v59zM224.999 638.999l-21.501 0.00292969
c-7.66699 0 -15.167 -0.333008 -22.5 -1s-14.166 -1.33398 -20.499 -2.00098s-11.5 -1.33398 -15.5 -2.00098v-241h117v-59h-117v-270c2.66699 -0.666992 7.5 -1.16699 14.5 -1.5l22 -1l22 -1c7 -0.333008 12.167 -0.5 15.5 -0.5c36.667 0 67.334 8 92.001 24
s44.167 37.5 58.5 64.5s24.5 58.333 30.5 94s9 73.5 9 113.5c0 35.333 -2.66699 70 -8 104s-14.833 64.167 -28.5 90.5s-32.334 47.666 -56.001 63.999s-54.167 24.5 -91.5 24.5z" />
    <glyph glyph-name="dcroat" unicode="&#x111;" horiz-adv-x="434" 
d="M374 633h64.002v-59h-64v-402c0 -34 0.333008 -64.833 1 -92.5s3 -54.834 7 -81.501h-49l-16 60h-4c-9.33301 -20 -24 -36.667 -44 -50s-44 -20 -72 -20c-54 0 -94.167 21 -120.5 63s-39.5 108 -39.5 198c0 85.333 16.167 150 48.5 194s76.833 66 133.5 66
c19.333 0 34.666 -1.16699 45.999 -3.5s23.666 -6.16602 36.999 -11.499v80h-125v59h125v67h72v-67zM302.002 421c-9.33301 8 -19.834 13.832 -31.501 17.499s-27.167 5.5 -46.5 5.5c-35.333 0 -62.833 -16 -82.5 -48s-29.5 -81.333 -29.5 -148
c0 -29.333 1.83301 -55.833 5.5 -79.5s9.33398 -44.167 17.001 -61.5s17.667 -30.666 30 -39.999s27.5 -14 45.5 -14c48 0 78.667 28.333 92 85v283z" />
    <glyph glyph-name="Emacron" unicode="&#x112;" horiz-adv-x="429" 
d="M64 700h311v-69h-236v-237h217v-69h-217v-256h241v-69h-316v700zM84 843h259v-62h-259v62z" />
    <glyph glyph-name="emacron" unicode="&#x113;" horiz-adv-x="413" 
d="M358 34c-16 -14.667 -36.332 -26.001 -60.999 -34.001s-50.667 -12 -78 -12c-31.333 0 -58.5 6.16699 -81.5 18.5s-42 30 -57 53s-26 50.5 -33 82.5s-10.5 68 -10.5 108c0 85.333 15.667 150.333 47 195s75.666 67 132.999 67c18.667 0 37.167 -2.33301 55.5 -7
s34.833 -14 49.5 -28s26.5 -33.667 35.5 -59s13.5 -58.333 13.5 -99c0 -11.333 -0.5 -23.5 -1.5 -36.5s-2.16699 -26.5 -3.5 -40.5h-254c0 -28.667 2.33301 -54.667 7 -78s12 -43.166 22 -59.499s22.833 -29 38.5 -38s35.167 -13.5 58.5 -13.5c18 0 35.833 3.33301 53.5 10
s31.167 14.667 40.5 24zM302.001 301.999c1.33301 50 -5.66699 86.667 -21 110s-36.333 35 -63 35c-30.667 0 -55 -11.667 -73 -35s-28.667 -60 -32 -110h189zM85.001 642.999h243v-59h-243v59z" />
    <glyph glyph-name="Edotaccent" unicode="&#x116;" horiz-adv-x="429" 
d="M64 700h311v-69h-236v-237h217v-69h-217v-256h241v-69h-316v700zM166 797c0 14 4.66699 26.167 14 36.5s22.666 15.5 39.999 15.5s30.833 -5.16699 40.5 -15.5s14.5 -22.5 14.5 -36.5c0 -15.333 -4.83301 -28 -14.5 -38s-23.167 -15 -40.5 -15s-30.666 5 -39.999 15
s-14 22.667 -14 38z" />
    <glyph glyph-name="edotaccent" unicode="&#x117;" horiz-adv-x="413" 
d="M358 34c-16 -14.667 -36.332 -26.001 -60.999 -34.001s-50.667 -12 -78 -12c-31.333 0 -58.5 6.16699 -81.5 18.5s-42 30 -57 53s-26 50.5 -33 82.5s-10.5 68 -10.5 108c0 85.333 15.667 150.333 47 195s75.666 67 132.999 67c18.667 0 37.167 -2.33301 55.5 -7
s34.833 -14 49.5 -28s26.5 -33.667 35.5 -59s13.5 -58.333 13.5 -99c0 -11.333 -0.5 -23.5 -1.5 -36.5s-2.16699 -26.5 -3.5 -40.5h-254c0 -28.667 2.33301 -54.667 7 -78s12 -43.166 22 -59.499s22.833 -29 38.5 -38s35.167 -13.5 58.5 -13.5c18 0 35.833 3.33301 53.5 10
s31.167 14.667 40.5 24zM302.001 301.999c1.33301 50 -5.66699 86.667 -21 110s-36.333 35 -63 35c-30.667 0 -55 -11.667 -73 -35s-28.667 -60 -32 -110h189zM167.001 651.999c0 16 4.5 29.002 13.5 39.002s20.833 15 35.5 15s26.834 -4.83301 36.501 -14.5
s14.5 -22.834 14.5 -39.501c0 -16 -4.83301 -28.5 -14.5 -37.5s-21.834 -13.5 -36.501 -13.5s-26.5 4.66699 -35.5 14s-13.5 21.666 -13.5 36.999z" />
    <glyph glyph-name="Eogonek" unicode="&#x118;" horiz-adv-x="429" 
d="M64 700l311.002 0.00292969v-69h-236v-237h217v-69h-217v-256h241v-69h-31c-14.667 -10.667 -26.167 -23.334 -34.5 -38.001s-12.5 -31.334 -12.5 -50.001c0.666992 -19.333 7.16699 -34.166 19.5 -44.499s30.833 -10.5 55.5 -0.5l10 -40
c-7.33301 -7.33301 -17.833 -13 -31.5 -17s-26.834 -6 -39.501 -6c-26.667 0 -47.834 8 -63.501 24s-23.5 36.667 -23.5 62s6.16699 47.166 18.5 65.499s28.833 33.166 49.5 44.499h-233v700z" />
    <glyph glyph-name="eogonek" unicode="&#x119;" horiz-adv-x="409" 
d="M358 34c-12.667 -12 -28.3311 -21.6689 -46.998 -29.002c-14.667 -10 -26.667 -21.667 -36 -35c-12 -16.667 -17.667 -36 -17 -58c0 -18.667 6.16699 -33.167 18.5 -43.5s31.166 -9.83301 56.499 1.5l10 -43c-8 -8 -19 -13.833 -33 -17.5s-27.667 -5.5 -41 -5.5
c-25.333 0 -45.333 8 -60 24s-22 37.667 -22 65c0 28.667 8.33301 53 25 73c6.66699 8 14.667 15.667 24 23c-6 -0.666992 -11.667 -1 -17 -1c-31.333 0 -58.5 6.16699 -81.5 18.5s-42 30 -57 53s-26 50.5 -33 82.5s-10.5 68 -10.5 108c0 85.333 15.667 150.333 47 195
s75.666 67 132.999 67c21.333 0 42.333 -3.16699 63 -9.5s38.5 -19.166 53.5 -38.499s25.833 -46.666 32.5 -81.999s6.66699 -82 0 -140h-255c0 -28.667 2.33301 -54.667 7 -78s12 -43.333 22 -60s23 -29.5 39 -38.5s35.667 -13.5 59 -13.5c18 0 35.833 3.5 53.5 10.5
s31.167 15.167 40.5 24.5zM218.003 447.998c-30.667 0 -55 -11.833 -73 -35.5s-28.667 -60.5 -32 -110.5h189c1.33301 50 -5.66699 86.833 -21 110.5s-36.333 35.5 -63 35.5z" />
    <glyph glyph-name="Ecaron" unicode="&#x11a;" horiz-adv-x="429" 
d="M64 700h311v-69h-236v-237h217v-69h-217v-256h241v-69h-316v700zM242 746h-53l-102 103v21h69l47 -50l14 -34l15 33l50 51h66v-22z" />
    <glyph glyph-name="ecaron" unicode="&#x11b;" horiz-adv-x="413" 
d="M358 34c-16 -14.667 -36.332 -26.001 -60.999 -34.001s-50.667 -12 -78 -12c-31.333 0 -58.5 6.16699 -81.5 18.5s-42 30 -57 53s-26 50.5 -33 82.5s-10.5 68 -10.5 108c0 85.333 15.667 150.333 47 195s75.666 67 132.999 67c18.667 0 37.167 -2.33301 55.5 -7
s34.833 -14 49.5 -28s26.5 -33.667 35.5 -59s13.5 -58.333 13.5 -99c0 -11.333 -0.5 -23.5 -1.5 -36.5s-2.16699 -26.5 -3.5 -40.5h-254c0 -28.667 2.33301 -54.667 7 -78s12 -43.166 22 -59.499s22.833 -29 38.5 -38s35.167 -13.5 58.5 -13.5c18 0 35.833 3.33301 53.5 10
s31.167 14.667 40.5 24zM302.001 301.999c1.33301 50 -5.66699 86.667 -21 110s-36.333 35 -63 35c-30.667 0 -55 -11.667 -73 -35s-28.667 -60 -32 -110h189zM229.001 549.999h-38l-93 182h68l31 -66l17 -58l17 58l36 66h61z" />
    <glyph glyph-name="Gcircumflex" unicode="&#x11c;" horiz-adv-x="492" 
d="M257 349h192.995v-308c-18.667 -17.333 -42.667 -30.5 -72 -39.5s-59 -13.5 -89 -13.5c-37.333 0 -71.166 7 -101.499 21s-56.166 35.833 -77.499 65.5s-37.833 67.167 -49.5 112.5s-17.5 99.666 -17.5 162.999c0 65.333 7 120.833 21 166.5s32.833 83 56.5 112
s50.667 50.167 81 63.5s61.5 20 93.5 20s58.833 -2.16699 80.5 -6.5s40.167 -10.166 55.5 -17.499l-18 -68c-13.333 7.33301 -29.166 13 -47.499 17s-39.5 6 -63.5 6c-23.333 0 -45.666 -5 -66.999 -15s-40.5 -26.5 -57.5 -49.5s-30.5 -53.167 -40.5 -90.5
s-15 -83.333 -15 -138c0 -100 15.833 -173.833 47.5 -221.5s75.167 -71.5 130.5 -71.5c34.667 0 63.334 8.33301 86.001 25v204l-129 19v44zM266.995 870h50l102 -102v-21h-66l-47 49l-15 35l-15 -34l-52 -50h-64v22z" />
    <glyph glyph-name="gcircumflex" unicode="&#x11d;" horiz-adv-x="432" 
d="M374 -23c0 -64.667 -14.333 -112.333 -43 -143s-70.334 -46 -125.001 -46c-33.333 0 -60.666 2.83301 -81.999 8.5s-38.666 12.167 -51.999 19.5l21 62c13.333 -6 28 -11.667 44 -17s35.667 -8 59 -8c40.667 0 68.5 11.333 83.5 34s22.5 60.667 22.5 114v37h-3
c-10.667 -15.333 -24.334 -27.333 -41.001 -36s-38 -13 -64 -13c-54 0 -93.667 20.833 -119 62.5s-38 107.167 -38 196.5c0 86 16.5 151 49.5 195s81.833 66 146.5 66c31.333 0 58.333 -3 81 -9s42.667 -13 60 -21v-502zM302 428.001
c-20 10.667 -45.668 16.002 -77.001 16.002c-34 0 -61.333 -15.5 -82 -46.5s-31 -80.5 -31 -148.5c0 -28 1.66699 -53.833 5 -77.5s9 -44.334 17 -62.001s18.167 -31.334 30.5 -41.001s27.5 -14.5 45.5 -14.5c25.333 0 45.333 6.66699 60 20s25.334 33.333 32.001 60v294z
M207.999 732.003h35l89 -182h-63l-32 66l-16 58l-17 -58l-36 -66h-59z" />
    <glyph glyph-name="Gbreve" unicode="&#x11e;" horiz-adv-x="492" 
d="M257 349h192.995v-308c-18.667 -17.333 -42.667 -30.5 -72 -39.5s-59 -13.5 -89 -13.5c-37.333 0 -71.166 7 -101.499 21s-56.166 35.833 -77.499 65.5s-37.833 67.167 -49.5 112.5s-17.5 99.666 -17.5 162.999c0 65.333 7 120.833 21 166.5s32.833 83 56.5 112
s50.667 50.167 81 63.5s61.5 20 93.5 20s58.833 -2.16699 80.5 -6.5s40.167 -10.166 55.5 -17.499l-18 -68c-13.333 7.33301 -29.166 13 -47.499 17s-39.5 6 -63.5 6c-23.333 0 -45.666 -5 -66.999 -15s-40.5 -26.5 -57.5 -49.5s-30.5 -53.167 -40.5 -90.5
s-15 -83.333 -15 -138c0 -100 15.833 -173.833 47.5 -221.5s75.167 -71.5 130.5 -71.5c34.667 0 63.334 8.33301 86.001 25v204l-129 19v44zM177.995 871c9.33301 -22.667 23.335 -41 42.002 -55s40.667 -21 66 -21c26 0 47.5 7.5 64.5 22.5s29.833 32.833 38.5 53.5l36 -16
c-10 -42 -28.167 -73.333 -54.5 -94s-54.833 -31 -85.5 -31c-28.667 0 -56.834 9.66699 -84.501 29s-47.834 50 -60.501 92z" />
    <glyph glyph-name="gbreve" unicode="&#x11f;" horiz-adv-x="432" 
d="M374 -23c0 -64.667 -14.333 -112.333 -43 -143s-70.334 -46 -125.001 -46c-33.333 0 -60.666 2.83301 -81.999 8.5s-38.666 12.167 -51.999 19.5l21 62c13.333 -6 28 -11.667 44 -17s35.667 -8 59 -8c40.667 0 68.5 11.333 83.5 34s22.5 60.667 22.5 114v37h-3
c-10.667 -15.333 -24.334 -27.333 -41.001 -36s-38 -13 -64 -13c-54 0 -93.667 20.833 -119 62.5s-38 107.167 -38 196.5c0 86 16.5 151 49.5 195s81.833 66 146.5 66c31.333 0 58.333 -3 81 -9s42.667 -13 60 -21v-502zM302 428.001
c-20 10.667 -45.668 16.002 -77.001 16.002c-34 0 -61.333 -15.5 -82 -46.5s-31 -80.5 -31 -148.5c0 -28 1.66699 -53.833 5 -77.5s9 -44.334 17 -62.001s18.167 -31.334 30.5 -41.001s27.5 -14.5 45.5 -14.5c25.333 0 45.333 6.66699 60 20s25.334 33.333 32.001 60v294z
M132.999 717.003c9.33301 -24 22 -43.166 38 -57.499s33.667 -21.5 53 -21.5c18.667 0 35.167 7 49.5 21s25.833 33.333 34.5 58l37 -15c-1.33301 -17.333 -5.5 -33.833 -12.5 -49.5s-15.833 -29.334 -26.5 -41.001s-23.167 -21 -37.5 -28s-29.5 -10.5 -45.5 -10.5
c-31.333 0 -58.833 11 -82.5 33s-39.167 53 -46.5 93z" />
    <glyph glyph-name="Gcommaaccent" unicode="&#x122;" horiz-adv-x="492" 
d="M257 349h192.995v-308c-18.667 -17.333 -42.667 -30.5 -72 -39.5s-59 -13.5 -89 -13.5c-37.333 0 -71.166 7 -101.499 21s-56.166 35.833 -77.499 65.5s-37.833 67.167 -49.5 112.5s-17.5 99.666 -17.5 162.999c0 65.333 7 120.833 21 166.5s32.833 83 56.5 112
s50.667 50.167 81 63.5s61.5 20 93.5 20s58.833 -2.16699 80.5 -6.5s40.167 -10.166 55.5 -17.499l-18 -68c-13.333 7.33301 -29.166 13 -47.499 17s-39.5 6 -63.5 6c-23.333 0 -45.666 -5 -66.999 -15s-40.5 -26.5 -57.5 -49.5s-30.5 -53.167 -40.5 -90.5
s-15 -83.333 -15 -138c0 -100 15.833 -173.833 47.5 -221.5s75.167 -71.5 130.5 -71.5c34.667 0 63.334 8.33301 86.001 25v204l-129 19v44zM237.995 -102c0 14 4.33105 25.334 12.998 34.001s19 13 31 13c14.667 0 27.334 -5.66699 38.001 -17s16 -30.666 16 -57.999
c0 -17.333 -2.5 -32.5 -7.5 -45.5s-11 -24.333 -18 -34s-14.333 -17.334 -22 -23.001s-14.5 -9.83398 -20.5 -12.501l-27 27c11.333 8.66699 20.833 19.167 28.5 31.5s11.167 26.5 10.5 42.5c-11.333 -1.33301 -21.166 1.66699 -29.499 9s-12.5 18.333 -12.5 33z" />
    <glyph glyph-name="gcommaaccent" unicode="&#x123;" horiz-adv-x="432" 
d="M374 -23c0 -64.667 -14.333 -112.333 -43 -143s-70.334 -46 -125.001 -46c-33.333 0 -60.666 2.83301 -81.999 8.5s-38.666 12.167 -51.999 19.5l21 62c13.333 -6 28 -11.667 44 -17s35.667 -8 59 -8c40.667 0 68.5 11.333 83.5 34s22.5 60.667 22.5 114v37h-3
c-10.667 -15.333 -24.334 -27.333 -41.001 -36s-38 -13 -64 -13c-54 0 -93.667 20.833 -119 62.5s-38 107.167 -38 196.5c0 86 16.5 151 49.5 195s81.833 66 146.5 66c31.333 0 58.333 -3 81 -9s42.667 -13 60 -21v-502zM302 428.001
c-20 10.667 -45.668 16.002 -77.001 16.002c-34 0 -61.333 -15.5 -82 -46.5s-31 -80.5 -31 -148.5c0 -28 1.66699 -53.833 5 -77.5s9 -44.334 17 -62.001s18.167 -31.334 30.5 -41.001s27.5 -14.5 45.5 -14.5c25.333 0 45.333 6.66699 60 20s25.334 33.333 32.001 60v294z
M279.999 609.003c0 -14 -4.16406 -25.332 -12.4971 -33.999s-18.5 -13 -30.5 -13c-14.667 0 -27.334 5.66699 -38.001 17s-16 30.666 -16 57.999c0 16 2.5 30.5 7.5 43.5s11 24.333 18 34s14.333 17.667 22 24s14.5 10.833 20.5 13.5l26 -30
c-10.667 -6 -19.834 -15.5 -27.501 -28.5s-11.5 -27.5 -11.5 -43.5c11.333 3.33301 21.166 1 29.499 -7s12.5 -19.333 12.5 -34z" />
    <glyph glyph-name="Hcircumflex" unicode="&#x124;" horiz-adv-x="536" 
d="M397 323h-258v-323h-75v700h75v-308h258v308h75v-700h-75v323zM244 870h50l102 -102v-21h-66l-47 49l-15 35l-15 -34l-52 -50h-64v22z" />
    <glyph glyph-name="hcircumflex" unicode="&#x125;" horiz-adv-x="440" 
d="M315 0v304c0 46.667 -5.5 82.167 -16.5 106.5s-32.833 36.5 -65.5 36.5c-23.333 0 -44.5 -8.33301 -63.5 -25s-31.833 -37.667 -38.5 -63v-359h-72v700h72v-247h3c13.333 17.333 29.833 31.5 49.5 42.5s44.167 16.5 73.5 16.5c22 0 41.167 -3 57.5 -9
s29.833 -16.333 40.5 -31s18.667 -34.167 24 -58.5s8 -54.5 8 -90.5v-323h-72zM76 870h50l102 -102v-21h-66l-47 49l-15 35l-15 -34l-52 -50h-64v22z" />
    <glyph glyph-name="Hbar" unicode="&#x126;" horiz-adv-x="549" 
d="M8 585h63v115h75v-115h258v115h75v-115h63v-59h-63v-526h-75v323h-258v-323h-75v526h-63v59zM404 392v134h-258v-134h258z" />
    <glyph glyph-name="hbar" unicode="&#x127;" horiz-adv-x="441" 
d="M-4 633h64v67h72v-67h129v-59h-129v-121h3c13.333 17.333 29.833 31.5 49.5 42.5s44.167 16.5 73.5 16.5c22 0 41.167 -3 57.5 -9s29.833 -16.333 40.5 -31s18.667 -34.167 24 -58.5s8 -54.5 8 -90.5v-323h-72v304c0 46.667 -5.5 82.167 -16.5 106.5
s-32.833 36.5 -65.5 36.5c-23.333 0 -44.5 -8.33301 -63.5 -25s-31.833 -37.667 -38.5 -63v-359h-72v574h-64v59z" />
    <glyph glyph-name="Imacron" unicode="&#x12a;" horiz-adv-x="233" 
d="M79 700h75v-700h-75v700zM-12 843h259v-62h-259v62z" />
    <glyph glyph-name="imacron" unicode="&#x12b;" horiz-adv-x="217" 
d="M72 500h72v-500h-72v500zM-12 643h243v-59h-243v59z" />
    <glyph glyph-name="Iogonek" unicode="&#x12e;" horiz-adv-x="234" 
d="M79 700l74.999 0.00195312v-700h-13c-13.333 -10 -24.166 -22.167 -32.499 -36.5s-12.166 -31.833 -11.499 -52.5c0 -18.667 6 -33.334 18 -44.001s30.667 -11 56 -1l10 -39c-8 -8 -18.833 -13.833 -32.5 -17.5s-26.834 -5.5 -39.501 -5.5c-25.333 0 -46 7.66699 -62 23
s-24 36.666 -24 63.999c0 23.333 6.16699 44.5 18.5 63.5s28.833 34.167 49.5 45.5h-12v700z" />
    <glyph glyph-name="iogonek" unicode="&#x12f;" horiz-adv-x="217" 
d="M72 500l72.001 0.000976562v-500h-14c-13.333 -10.667 -24.333 -23.5 -33 -38.5s-12.667 -31.833 -12 -50.5c0 -9.33301 1.83301 -17.833 5.5 -25.5s8.66699 -13.834 15 -18.501s14.166 -7 23.499 -7s20 3.33301 32 10l9 -43c-8 -8 -19 -13.833 -33 -17.5
s-27.667 -5.5 -41 -5.5c-25.333 0 -45.333 7.83301 -60 23.5s-22 37.167 -22 64.5c0 23.333 5.83301 44.333 17.5 63s27.5 33.667 47.5 45h-7v500zM58.001 652.001c0 16 4.5 29.002 13.5 39.002s20.833 15 35.5 15s26.834 -4.83301 36.501 -14.5s14.5 -22.834 14.5 -39.501
c0 -16 -4.83301 -28.5 -14.5 -37.5s-21.834 -13.5 -36.501 -13.5s-26.5 4.66699 -35.5 14s-13.5 21.666 -13.5 36.999z" />
    <glyph glyph-name="Idotaccent" unicode="&#x130;" horiz-adv-x="233" 
d="M79 700h75v-700h-75v700zM62 797c0 14 4.66699 26.167 14 36.5s22.666 15.5 39.999 15.5s30.833 -5.16699 40.5 -15.5s14.5 -22.5 14.5 -36.5c0 -15.333 -4.83301 -28 -14.5 -38s-23.167 -15 -40.5 -15s-30.666 5 -39.999 15s-14 22.667 -14 38z" />
    <glyph glyph-name="dotlessi" unicode="&#x131;" horiz-adv-x="217" 
d="M72 500h72v-500h-72v500z" />
    <glyph glyph-name="Jcircumflex" unicode="&#x134;" horiz-adv-x="241" 
d="M93 700l75 -0.000976562v-543c0 -54.667 -8.83301 -96.167 -26.5 -124.5s-48.5 -42.5 -92.5 -42.5c-10.667 0 -23.5 1.33301 -38.5 4s-27.167 6.66699 -36.5 12l16 65c6.66699 -4 14.167 -7 22.5 -9s16.833 -3 25.5 -3c12 0 21.667 2.66699 29 8s13 12.833 17 22.5
s6.5 21.334 7.5 35.001s1.5 29.167 1.5 46.5v529zM107 869.999h50l102 -102v-21h-66l-47 49l-15 35l-15 -34l-52 -50h-64v22z" />
    <glyph glyph-name="jcircumflex" unicode="&#x135;" horiz-adv-x="215" 
d="M72 500l72 0.000976562v-527c0 -68.667 -11 -118.167 -33 -148.5s-57.667 -41.833 -107 -34.5v65c14.667 0 26.5 3 35.5 9s16 15.167 21 27.5s8.16699 27.666 9.5 45.999s2 39.833 2 64.5v498zM100 732.001h35l89 -182h-63l-32 66l-16 58l-17 -58l-36 -66h-59z" />
    <glyph glyph-name="Kcommaaccent" unicode="&#x136;" horiz-adv-x="493" 
d="M175 324h-36v-324h-75v700h75v-326l35 14l182 312h86l-183 -302l-35 -32l41 -40l203 -326h-95zM188 -102c0 14 4.33105 25.334 12.998 34.001s19 13 31 13c14.667 0 27.334 -5.66699 38.001 -17s16 -30.666 16 -57.999c0 -17.333 -2.5 -32.5 -7.5 -45.5
s-11 -24.333 -18 -34s-14.333 -17.334 -22 -23.001s-14.5 -9.83398 -20.5 -12.501l-27 27c11.333 8.66699 20.833 19.167 28.5 31.5s11.167 26.5 10.5 42.5c-11.333 -1.33301 -21.166 1.66699 -29.499 9s-12.5 18.333 -12.5 33z" />
    <glyph glyph-name="kcommaaccent" unicode="&#x137;" horiz-adv-x="388" 
d="M168 225h-37v-225h-72v700h72v-426l33 14l117 212h83l-118 -202l-35 -32l41 -39l129 -227h-87zM146 -102c0 14 4.33105 25.334 12.998 34.001s19 13 31 13c14.667 0 27.334 -5.66699 38.001 -17s16 -30.666 16 -57.999c0 -17.333 -2.5 -32.5 -7.5 -45.5
s-11 -24.333 -18 -34s-14.333 -17.334 -22 -23.001s-14.5 -9.83398 -20.5 -12.501l-27 27c11.333 8.66699 20.833 19.167 28.5 31.5s11.167 26.5 10.5 42.5c-11.333 -1.33301 -21.166 1.66699 -29.499 9s-12.5 18.333 -12.5 33z" />
    <glyph glyph-name="Lacute" unicode="&#x139;" horiz-adv-x="415" 
d="M401 0h-337v700h75v-631h262v-69zM173 870h99v-21l-131 -97h-61z" />
    <glyph glyph-name="lacute" unicode="&#x13a;" horiz-adv-x="233" 
d="M136 119c0 -23.333 3.16992 -40.001 9.50293 -50.001s15.166 -15 26.499 -15c14 0 30.333 3.66699 49 11l7 -58c-8.66699 -5.33301 -20.834 -9.66602 -36.501 -12.999s-29.834 -5 -42.501 -5c-25.333 0 -45.833 7.83301 -61.5 23.5s-23.5 43.167 -23.5 82.5v605h72v-581z
M162.003 869.999h99v-21l-131 -97h-61z" />
    <glyph glyph-name="Lcommaaccent" unicode="&#x13b;" horiz-adv-x="415" 
d="M401 0h-337v700h75v-631h262v-69zM154 -102c0 14 4.33105 25.334 12.998 34.001s19 13 31 13c14.667 0 27.334 -5.66699 38.001 -17s16 -30.666 16 -57.999c0 -17.333 -2.5 -32.5 -7.5 -45.5s-11 -24.333 -18 -34s-14.333 -17.334 -22 -23.001
s-14.5 -9.83398 -20.5 -12.501l-27 27c11.333 8.66699 20.833 19.167 28.5 31.5s11.167 26.5 10.5 42.5c-11.333 -1.33301 -21.166 1.66699 -29.499 9s-12.5 18.333 -12.5 33z" />
    <glyph glyph-name="lcommaaccent" unicode="&#x13c;" horiz-adv-x="233" 
d="M136 119c0 -23.333 3.16992 -40.001 9.50293 -50.001s15.166 -15 26.499 -15c14 0 30.333 3.66699 49 11l7 -58c-8.66699 -5.33301 -20.834 -9.66602 -36.501 -12.999s-29.834 -5 -42.501 -5c-25.333 0 -45.833 7.83301 -61.5 23.5s-23.5 43.167 -23.5 82.5v605h72v-581z
M92.0029 -102.001c0 14 4.33105 25.334 12.998 34.001s19 13 31 13c14.667 0 27.334 -5.66699 38.001 -17s16 -30.666 16 -57.999c0 -17.333 -2.5 -32.5 -7.5 -45.5s-11 -24.333 -18 -34s-14.333 -17.334 -22 -23.001s-14.5 -9.83398 -20.5 -12.501l-27 27
c11.333 8.66699 20.833 19.167 28.5 31.5s11.167 26.5 10.5 42.5c-11.333 -1.33301 -21.166 1.66699 -29.499 9s-12.5 18.333 -12.5 33z" />
    <glyph glyph-name="Lcaron" unicode="&#x13d;" horiz-adv-x="415" 
d="M401 0h-337v700h75v-631h262v-69zM355 700c-1.33301 -19.333 -4.66699 -39.001 -10 -59.001s-11.666 -38.667 -18.999 -56s-14.833 -32.5 -22.5 -45.5s-13.834 -22.5 -18.501 -28.5l-30 15c9.33301 24 16.333 51.333 21 82s7 61.334 7 92.001h72z" />
    <glyph glyph-name="lcaron" unicode="&#x13e;" horiz-adv-x="233" 
d="M136 119c0 -23.333 3.16992 -40.001 9.50293 -50.001s15.166 -15 26.499 -15c14 0 30.333 3.66699 49 11l7 -58c-8.66699 -5.33301 -20.834 -9.66602 -36.501 -12.999s-29.834 -5 -42.501 -5c-25.333 0 -45.833 7.83301 -61.5 23.5s-23.5 43.167 -23.5 82.5v605h72v-581z
M266.003 699.999c-1.33301 -19.333 -4.66699 -39.001 -10 -59.001s-11.666 -38.667 -18.999 -56s-14.833 -32.5 -22.5 -45.5s-13.834 -22.5 -18.501 -28.5l-30 15c9.33301 24 16.333 51.333 21 82s7 61.334 7 92.001h72z" />
    <glyph glyph-name="Lslash" unicode="&#x141;" horiz-adv-x="418" 
d="M15 290l52 48v362h75v-293l90 84v-83l-90 -82v-257h262v-69h-337v258l-52 -47v79z" />
    <glyph glyph-name="lslash" unicode="&#x142;" horiz-adv-x="234" 
d="M8 288l60.0029 54.999v357h72v-290l85 79v-83l-85 -77v-210c0 -23.333 3.16699 -40 9.5 -50s15.166 -15 26.499 -15c14 0 30.333 3.66699 49 11l7 -58c-8.66699 -5.33301 -20.834 -9.66602 -36.501 -12.999s-29.834 -5 -42.501 -5c-25.333 0 -45.833 7.83301 -61.5 23.5
s-23.5 43.167 -23.5 82.5v168l-60 -54v79z" />
    <glyph glyph-name="Nacute" unicode="&#x143;" horiz-adv-x="538" 
d="M171 444l-43 110h-3l11 -110v-444h-72v711h45l259 -454l41 -105h4l-11 105v443h72v-711h-46zM327 870h99v-21l-131 -97h-61z" />
    <glyph glyph-name="nacute" unicode="&#x144;" horiz-adv-x="439" 
d="M315 0v305c0 50 -5.83301 86.167 -17.5 108.5s-32.5 33.5 -62.5 33.5c-26.667 0 -48.667 -8 -66 -24s-30 -35.667 -38 -59v-364h-72v500h52l13 -53h3c12.667 18 29.834 33.333 51.501 46s47.5 19 77.5 19c21.333 0 40.166 -3 56.499 -9s30 -16.167 41 -30.5
s19.333 -33.5 25 -57.5s8.5 -54.333 8.5 -91v-324h-72zM241 720h78v-21l-82 -128h-43z" />
    <glyph glyph-name="Ncommaaccent" unicode="&#x145;" horiz-adv-x="538" 
d="M171 444l-43 110h-3l11 -110v-444h-72v711h45l259 -454l41 -105h4l-11 105v443h72v-711h-46zM223 -102c0 14 4.33105 25.334 12.998 34.001s19 13 31 13c14.667 0 27.334 -5.66699 38.001 -17s16 -30.666 16 -57.999c0 -17.333 -2.5 -32.5 -7.5 -45.5
s-11 -24.333 -18 -34s-14.333 -17.334 -22 -23.001s-14.5 -9.83398 -20.5 -12.501l-27 27c11.333 8.66699 20.833 19.167 28.5 31.5s11.167 26.5 10.5 42.5c-11.333 -1.33301 -21.166 1.66699 -29.499 9s-12.5 18.333 -12.5 33z" />
    <glyph glyph-name="ncommaaccent" unicode="&#x146;" horiz-adv-x="439" 
d="M315 0v305c0 50 -5.83301 86.167 -17.5 108.5s-32.5 33.5 -62.5 33.5c-26.667 0 -48.667 -8 -66 -24s-30 -35.667 -38 -59v-364h-72v500h52l13 -53h3c12.667 18 29.834 33.333 51.501 46s47.5 19 77.5 19c21.333 0 40.166 -3 56.499 -9s30 -16.167 41 -30.5
s19.333 -33.5 25 -57.5s8.5 -54.333 8.5 -91v-324h-72zM171 -102c0 14 4.33105 25.334 12.998 34.001s19 13 31 13c14.667 0 27.334 -5.66699 38.001 -17s16 -30.666 16 -57.999c0 -17.333 -2.5 -32.5 -7.5 -45.5s-11 -24.333 -18 -34s-14.333 -17.334 -22 -23.001
s-14.5 -9.83398 -20.5 -12.501l-27 27c11.333 8.66699 20.833 19.167 28.5 31.5s11.167 26.5 10.5 42.5c-11.333 -1.33301 -21.166 1.66699 -29.499 9s-12.5 18.333 -12.5 33z" />
    <glyph glyph-name="Ncaron" unicode="&#x147;" horiz-adv-x="538" 
d="M171 444l-43 110h-3l11 -110v-444h-72v711h45l259 -454l41 -105h4l-11 105v443h72v-711h-46zM295 746h-53l-102 103v21h69l47 -50l14 -34l15 33l50 51h66v-22z" />
    <glyph glyph-name="ncaron" unicode="&#x148;" horiz-adv-x="439" 
d="M315 0v305c0 50 -5.83301 86.167 -17.5 108.5s-32.5 33.5 -62.5 33.5c-26.667 0 -48.667 -8 -66 -24s-30 -35.667 -38 -59v-364h-72v500h52l13 -53h3c12.667 18 29.834 33.333 51.501 46s47.5 19 77.5 19c21.333 0 40.166 -3 56.499 -9s30 -16.167 41 -30.5
s19.333 -33.5 25 -57.5s8.5 -54.333 8.5 -91v-324h-72zM237 550h-38l-93 182h68l31 -66l17 -58l17 58l36 66h61z" />
    <glyph glyph-name="Omacron" unicode="&#x14c;" horiz-adv-x="549" 
d="M43 350c0 118.667 19 208.667 57 270s96 92 174 92c42 0 77.667 -8.5 107 -25.5s53.166 -41.167 71.499 -72.5s31.833 -69.333 40.5 -114s13 -94.667 13 -150c0 -118.667 -19.167 -208.667 -57.5 -270s-96.5 -92 -174.5 -92c-41.333 0 -76.666 8.5 -105.999 25.5
s-53.333 41.167 -72 72.5s-32.167 69.333 -40.5 114s-12.5 94.667 -12.5 150zM122 350c0 -39.333 2.83398 -76.667 8.50098 -112s14.5 -66.333 26.5 -93s27.667 -48 47 -64s42.666 -24 69.999 -24c50 0 88 24 114 72s39 121.667 39 221c0 38.667 -2.83301 75.667 -8.5 111
s-14.5 66.5 -26.5 93.5s-27.667 48.5 -47 64.5s-43 24 -71 24c-49.333 0 -87 -24 -113 -72s-39 -121.667 -39 -221zM149.001 842.999h259v-62h-259v62z" />
    <glyph glyph-name="omacron" unicode="&#x14d;" horiz-adv-x="432" 
d="M37 250c0 90 15.5 156.167 46.5 198.5s75.167 63.5 132.5 63.5c61.333 0 106.5 -21.667 135.5 -65s43.5 -109 43.5 -197c0 -90.667 -15.667 -157 -47 -199s-75.333 -63 -132 -63c-61.333 0 -106.5 21.667 -135.5 65s-43.5 109 -43.5 197zM112 250
c0 -29.333 1.83301 -55.999 5.5 -79.999s9.66699 -44.667 18 -62s19.166 -30.833 32.499 -40.5s29.333 -14.5 48 -14.5c34.667 0 60.667 15.5 78 46.5s26 81.167 26 150.5c0 28.667 -1.83301 55.167 -5.5 79.5s-9.66699 45.166 -18 62.499s-19.166 30.833 -32.499 40.5
s-29.333 14.5 -48 14.5c-34 0 -59.833 -15.667 -77.5 -47s-26.5 -81.333 -26.5 -150zM94 643.001h243v-59h-243v59z" />
    <glyph glyph-name="Ohungarumlaut" unicode="&#x150;" horiz-adv-x="549" 
d="M43 350c0 118.667 19 208.667 57 270s96 92 174 92c42 0 77.667 -8.5 107 -25.5s53.166 -41.167 71.499 -72.5s31.833 -69.333 40.5 -114s13 -94.667 13 -150c0 -118.667 -19.167 -208.667 -57.5 -270s-96.5 -92 -174.5 -92c-41.333 0 -76.666 8.5 -105.999 25.5
s-53.333 41.167 -72 72.5s-32.167 69.333 -40.5 114s-12.5 94.667 -12.5 150zM122 350c0 -39.333 2.83398 -76.667 8.50098 -112s14.5 -66.333 26.5 -93s27.667 -48 47 -64s42.666 -24 69.999 -24c50 0 88 24 114 72s39 121.667 39 221c0 38.667 -2.83301 75.667 -8.5 111
s-14.5 66.5 -26.5 93.5s-27.667 48.5 -47 64.5s-43 24 -71 24c-49.333 0 -87 -24 -113 -72s-39 -121.667 -39 -221zM239.001 849.999h81v-16l-80 -93h-52zM375.001 849.999h86v-16l-115 -93h-52z" />
    <glyph glyph-name="ohungarumlaut" unicode="&#x151;" horiz-adv-x="432" 
d="M37 250c0 90 15.5 156.167 46.5 198.5s75.167 63.5 132.5 63.5c61.333 0 106.5 -21.667 135.5 -65s43.5 -109 43.5 -197c0 -90.667 -15.667 -157 -47 -199s-75.333 -63 -132 -63c-61.333 0 -106.5 21.667 -135.5 65s-43.5 109 -43.5 197zM112 250
c0 -29.333 1.83301 -55.999 5.5 -79.999s9.66699 -44.667 18 -62s19.166 -30.833 32.499 -40.5s29.333 -14.5 48 -14.5c34.667 0 60.667 15.5 78 46.5s26 81.167 26 150.5c0 28.667 -1.83301 55.167 -5.5 79.5s-9.66699 45.166 -18 62.499s-19.166 30.833 -32.499 40.5
s-29.333 14.5 -48 14.5c-34 0 -59.833 -15.667 -77.5 -47s-26.5 -81.333 -26.5 -150zM164 700.001h69v-16l-58 -113h-39zM287 700.001h75v-16l-92 -113h-42z" />
    <glyph glyph-name="OE" unicode="&#x152;" horiz-adv-x="748" 
d="M383 623c-14.667 7.33301 -31.333 12.499 -50 15.499s-38 4.5 -58 4.5c-48.667 0 -86.334 -24 -113.001 -72s-40 -121.667 -40 -221c0 -39.333 2.83301 -76.666 8.5 -111.999s14.834 -66.333 27.501 -93s29 -48 49 -64s44.333 -24 73 -24c15.333 0 31 0.666992 47 2
s34.667 6 56 14v550zM383.001 -0.000976562c-13.333 -3.33301 -29.332 -6.16699 -47.999 -8.5s-39.334 -3.5 -62.001 -3.5c-40 0 -74.5 8.5 -103.5 25.5s-52.833 41.333 -71.5 73s-32.5 69.667 -41.5 114s-13.5 94.166 -13.5 149.499c0 118 19.5 207.833 58.5 269.5
s96.167 92.5 171.5 92.5c24 0 44.167 -1.16699 60.5 -3.5s32.833 -5.16602 49.5 -8.49902h311v-69h-236v-237h216v-69h-216v-256h241v-69h-316z" />
    <glyph glyph-name="oe" unicode="&#x153;" horiz-adv-x="692" 
d="M112 250c0 -26 1.83398 -50.833 5.50098 -74.5s9.66699 -44.5 18 -62.5s19.166 -32.5 32.499 -43.5s29.333 -16.5 48 -16.5c68.667 0 103 65.667 103 197c0 26 -1.83301 50.833 -5.5 74.5s-9.5 44.667 -17.5 63s-18.667 32.833 -32 43.5s-29.333 16 -48 16
c-69.333 0 -104 -65.667 -104 -197zM355.001 75c-28.667 -58 -75.335 -86.999 -140.002 -86.999c-60.667 0 -105.5 22.667 -134.5 68s-43.5 110 -43.5 194c0 85.333 15.5 150.333 46.5 195s75.167 67 132.5 67c34 0 62.5 -7.5 85.5 -22.5s41.167 -36.167 54.5 -63.5
c13.333 25.333 31.833 46 55.5 62s51.834 24 84.501 24c18.667 0 37.167 -2.5 55.5 -7.5s34.833 -14.5 49.5 -28.5s26.5 -33.667 35.5 -59s13.5 -58.333 13.5 -99c0 -11.333 -0.5 -23.333 -1.5 -36s-2.16699 -26 -3.5 -40h-256c0.666992 -58 10.834 -104.167 30.501 -138.5
s52.167 -51.5 97.5 -51.5c18 0 36.333 3.66699 55 11s32.667 15.666 42 24.999l26 -53c-16 -15.333 -36.833 -27 -62.5 -35s-52.5 -12 -80.5 -12c-33.333 0 -62 8 -86 24s-42.667 37 -56 63zM496 448.001c-30 0 -54.1689 -12 -72.502 -36s-29.166 -61 -32.499 -111h190
c1.33301 50 -5.66699 87 -21 111s-36.666 36 -63.999 36z" />
    <glyph glyph-name="Racute" unicode="&#x154;" horiz-adv-x="480" 
d="M64 693c22 5.33301 46.1689 9.16504 72.502 11.498s50.5 3.5 72.5 3.5c26 0 50.667 -3.16699 74 -9.5s43.666 -17 60.999 -32s31.166 -34.667 41.499 -59s15.5 -54.833 15.5 -91.5c0 -55.333 -11.5 -99.666 -34.5 -132.999s-53.5 -55.666 -91.5 -66.999l38 -37l138 -279
h-87l-150 305l-75 15v-320h-75v693zM139.002 369.999h59.998c38 0 68 11.667 90 35s33 59 33 107c0 36.667 -9.16699 67 -27.5 91s-45.5 36 -81.5 36c-13.333 0 -27.166 -0.5 -41.499 -1.5s-25.166 -2.5 -32.499 -4.5v-263zM255 869.999h99v-21l-131 -97h-61z" />
    <glyph glyph-name="racute" unicode="&#x155;" horiz-adv-x="274" 
d="M59 500h50.999l13 -53h3c9.33301 19.333 21.5 34.5 36.5 45.5s33.167 16.5 54.5 16.5c15.333 0 32.666 -3 51.999 -9l-14 -73c-17.333 6 -32.666 9 -45.999 9c-21.333 0 -38.666 -6.16699 -51.999 -18.5s-22 -28.833 -26 -49.5v-368h-72v500zM156.999 720h78v-21
l-82 -128h-43z" />
    <glyph glyph-name="Rcommaaccent" unicode="&#x156;" horiz-adv-x="480" 
d="M64 693c22 5.33301 46.1689 9.16504 72.502 11.498s50.5 3.5 72.5 3.5c26 0 50.667 -3.16699 74 -9.5s43.666 -17 60.999 -32s31.166 -34.667 41.499 -59s15.5 -54.833 15.5 -91.5c0 -55.333 -11.5 -99.666 -34.5 -132.999s-53.5 -55.666 -91.5 -66.999l38 -37l138 -279
h-87l-150 305l-75 15v-320h-75v693zM139.002 369.999h59.998c38 0 68 11.667 90 35s33 59 33 107c0 36.667 -9.16699 67 -27.5 91s-45.5 36 -81.5 36c-13.333 0 -27.166 -0.5 -41.499 -1.5s-25.166 -2.5 -32.499 -4.5v-263zM192 -102.001c0 14 4.33105 25.334 12.998 34.001
s19 13 31 13c14.667 0 27.334 -5.66699 38.001 -17s16 -30.666 16 -57.999c0 -17.333 -2.5 -32.5 -7.5 -45.5s-11 -24.333 -18 -34s-14.333 -17.334 -22 -23.001s-14.5 -9.83398 -20.5 -12.501l-27 27c11.333 8.66699 20.833 19.167 28.5 31.5s11.167 26.5 10.5 42.5
c-11.333 -1.33301 -21.166 1.66699 -29.499 9s-12.5 18.333 -12.5 33z" />
    <glyph glyph-name="rcommaaccent" unicode="&#x157;" horiz-adv-x="274" 
d="M59 500h50.999l13 -53h3c9.33301 19.333 21.5 34.5 36.5 45.5s33.167 16.5 54.5 16.5c15.333 0 32.666 -3 51.999 -9l-14 -73c-17.333 6 -32.666 9 -45.999 9c-21.333 0 -38.666 -6.16699 -51.999 -18.5s-22 -28.833 -26 -49.5v-368h-72v500zM62.999 -102
c0 14 4.33105 25.334 12.998 34.001s19 13 31 13c14.667 0 27.334 -5.66699 38.001 -17s16 -30.666 16 -57.999c0 -17.333 -2.5 -32.5 -7.5 -45.5s-11 -24.333 -18 -34s-14.333 -17.334 -22 -23.001s-14.5 -9.83398 -20.5 -12.501l-27 27
c11.333 8.66699 20.833 19.167 28.5 31.5s11.167 26.5 10.5 42.5c-11.333 -1.33301 -21.166 1.66699 -29.499 9s-12.5 18.333 -12.5 33z" />
    <glyph glyph-name="Rcaron" unicode="&#x158;" horiz-adv-x="480" 
d="M64 693c22 5.33301 46.1689 9.16504 72.502 11.498s50.5 3.5 72.5 3.5c26 0 50.667 -3.16699 74 -9.5s43.666 -17 60.999 -32s31.166 -34.667 41.499 -59s15.5 -54.833 15.5 -91.5c0 -55.333 -11.5 -99.666 -34.5 -132.999s-53.5 -55.666 -91.5 -66.999l38 -37l138 -279
h-87l-150 305l-75 15v-320h-75v693zM139.002 369.999h59.998c38 0 68 11.667 90 35s33 59 33 107c0 36.667 -9.16699 67 -27.5 91s-45.5 36 -81.5 36c-13.333 0 -27.166 -0.5 -41.499 -1.5s-25.166 -2.5 -32.499 -4.5v-263zM228 745.999h-53l-102 103v21h69l47 -50l14 -34
l15 33l50 51h66v-22z" />
    <glyph glyph-name="rcaron" unicode="&#x159;" horiz-adv-x="274" 
d="M59 500h50.999l13 -53h3c9.33301 19.333 21.5 34.5 36.5 45.5s33.167 16.5 54.5 16.5c15.333 0 32.666 -3 51.999 -9l-14 -73c-17.333 6 -32.666 9 -45.999 9c-21.333 0 -38.666 -6.16699 -51.999 -18.5s-22 -28.833 -26 -49.5v-368h-72v500zM169.999 550h-38l-93 182h68
l31 -66l17 -58l17 58l36 66h61z" />
    <glyph glyph-name="Sacute" unicode="&#x15a;" horiz-adv-x="428" 
d="M59 93c12.667 -8.66699 30.5 -16.8301 53.5 -24.4971s49.167 -11.5 78.5 -11.5c37.333 0 67.666 9.16699 90.999 27.5s35 47.166 35 86.499c0 26 -6.66699 48.667 -20 68s-30 37.166 -50 53.499s-41.5 32.333 -64.5 48s-44.5 33 -64.5 52s-36.667 40.833 -50 65.5
s-20 54.334 -20 89.001c0 56 16.833 97.5 50.5 124.5s77.5 40.5 131.5 40.5c33.333 0 63 -3 89 -9s47 -13.667 63 -23l-24 -66c-12 7.33301 -29.167 14 -51.5 20s-48.166 9 -77.499 9c-36 0 -62.667 -8.83301 -80 -26.5s-26 -39.834 -26 -66.501
c0 -23.333 6.66699 -44 20 -62s30 -35 50 -51s41.5 -32.167 64.5 -48.5s44.5 -34.5 64.5 -54.5s36.667 -42.667 50 -68s20 -55.333 20 -90c0 -58.667 -17.333 -104.667 -52 -138s-83.667 -50 -147 -50c-40 0 -72.833 3.66699 -98.5 11s-46.167 15.666 -61.5 24.999z
M279 870.004h99v-21l-131 -97h-61z" />
    <glyph glyph-name="sacute" unicode="&#x15b;" horiz-adv-x="338" 
d="M51 82c13.333 -8 29.167 -14.832 47.5 -20.499s37.166 -8.5 56.499 -8.5c22 0 40.667 5.5 56 16.5s23 28.833 23 53.5c0 20.667 -4.66699 37.667 -14 51s-21.166 25.333 -35.499 36s-29.833 20.5 -46.5 29.5s-32.167 19.833 -46.5 32.5s-26.166 27.667 -35.499 45
s-14 39.333 -14 66c0 42.667 11.5 74.834 34.5 96.501s55.5 32.5 97.5 32.5c27.333 0 51 -2.5 71 -7.5s37.333 -11.833 52 -20.5l-19 -60c-12.667 6.66699 -27.334 12.167 -44.001 16.5s-33.667 6.5 -51 6.5c-24 0 -41.5 -5 -52.5 -15s-16.5 -25.667 -16.5 -47
c0 -16.667 4.66699 -30.834 14 -42.501s21.166 -22.334 35.499 -32.001s29.833 -19.5 46.5 -29.5s32.167 -21.833 46.5 -35.5s26.166 -30 35.499 -49s14 -42.833 14 -71.5c0 -18.667 -3 -36.334 -9 -53.001s-15.167 -31.167 -27.5 -43.5s-27.666 -22.166 -45.999 -29.499
s-39.833 -11 -64.5 -11c-29.333 0 -54.666 2.83301 -75.999 8.5s-39.333 13.167 -54 22.5zM190.001 720.001h78v-21l-82 -128h-43z" />
    <glyph glyph-name="Scircumflex" unicode="&#x15c;" horiz-adv-x="428" 
d="M59 93c12.667 -8.66699 30.5 -16.8301 53.5 -24.4971s49.167 -11.5 78.5 -11.5c37.333 0 67.666 9.16699 90.999 27.5s35 47.166 35 86.499c0 26 -6.66699 48.667 -20 68s-30 37.166 -50 53.499s-41.5 32.333 -64.5 48s-44.5 33 -64.5 52s-36.667 40.833 -50 65.5
s-20 54.334 -20 89.001c0 56 16.833 97.5 50.5 124.5s77.5 40.5 131.5 40.5c33.333 0 63 -3 89 -9s47 -13.667 63 -23l-24 -66c-12 7.33301 -29.167 14 -51.5 20s-48.166 9 -77.499 9c-36 0 -62.667 -8.83301 -80 -26.5s-26 -39.834 -26 -66.501
c0 -23.333 6.66699 -44 20 -62s30 -35 50 -51s41.5 -32.167 64.5 -48.5s44.5 -34.5 64.5 -54.5s36.667 -42.667 50 -68s20 -55.333 20 -90c0 -58.667 -17.333 -104.667 -52 -138s-83.667 -50 -147 -50c-40 0 -72.833 3.66699 -98.5 11s-46.167 15.666 -61.5 24.999z
M205 870.004h50l102 -102v-21h-66l-47 49l-15 35l-15 -34l-52 -50h-64v22z" />
    <glyph glyph-name="scircumflex" unicode="&#x15d;" horiz-adv-x="338" 
d="M51 82c13.333 -8 29.167 -14.832 47.5 -20.499s37.166 -8.5 56.499 -8.5c22 0 40.667 5.5 56 16.5s23 28.833 23 53.5c0 20.667 -4.66699 37.667 -14 51s-21.166 25.333 -35.499 36s-29.833 20.5 -46.5 29.5s-32.167 19.833 -46.5 32.5s-26.166 27.667 -35.499 45
s-14 39.333 -14 66c0 42.667 11.5 74.834 34.5 96.501s55.5 32.5 97.5 32.5c27.333 0 51 -2.5 71 -7.5s37.333 -11.833 52 -20.5l-19 -60c-12.667 6.66699 -27.334 12.167 -44.001 16.5s-33.667 6.5 -51 6.5c-24 0 -41.5 -5 -52.5 -15s-16.5 -25.667 -16.5 -47
c0 -16.667 4.66699 -30.834 14 -42.501s21.166 -22.334 35.499 -32.001s29.833 -19.5 46.5 -29.5s32.167 -21.833 46.5 -35.5s26.166 -30 35.499 -49s14 -42.833 14 -71.5c0 -18.667 -3 -36.334 -9 -53.001s-15.167 -31.167 -27.5 -43.5s-27.666 -22.166 -45.999 -29.499
s-39.833 -11 -64.5 -11c-29.333 0 -54.666 2.83301 -75.999 8.5s-39.333 13.167 -54 22.5zM161.001 732.001h35l89 -182h-63l-32 66l-16 58l-17 -58l-36 -66h-59z" />
    <glyph glyph-name="Scedilla" unicode="&#x15e;" horiz-adv-x="428" 
d="M59 93c12.667 -8.66699 30.499 -16.8311 53.499 -24.498s49.167 -11.5 78.5 -11.5c37.333 0 67.666 9.16699 90.999 27.5s35 47.166 35 86.499c0 26 -6.66699 48.667 -20 68s-30 37.166 -50 53.499s-41.5 32.333 -64.5 48s-44.5 33 -64.5 52s-36.667 40.833 -50 65.5
s-20 54.334 -20 89.001c0 56 16.833 97.5 50.5 124.5s77.5 40.5 131.5 40.5c33.333 0 63 -3 89 -9s47 -13.667 63 -23l-24 -66c-12 7.33301 -29.167 14 -51.5 20s-48.166 9 -77.499 9c-36 0 -62.667 -8.83301 -80 -26.5s-26 -39.834 -26 -66.501
c0 -23.333 6.66699 -44 20 -62s30 -35 50 -51s41.5 -32.167 64.5 -48.5s44.5 -34.5 64.5 -54.5s36.667 -42.667 50 -68s20 -55.333 20 -90c0 -52 -13.833 -94 -41.5 -126s-66.5 -51.667 -116.5 -59l-15 -34c43.333 -10 65 -35 65 -75c0 -26 -9.5 -47.5 -28.5 -64.5
s-44.5 -25.5 -76.5 -25.5c-13.333 0 -25.666 1.33301 -36.999 4l7 39c15.333 -1.33301 27.5 -1 36.5 1s15.833 5 20.5 9s7.66699 8.5 9 13.5s2 9.83301 2 14.5c0 18.667 -23 31 -69 37l34 78c-37.333 1.33301 -68 5.33301 -92 12s-43 14.667 -57 24z" />
    <glyph glyph-name="scedilla" unicode="&#x15f;" horiz-adv-x="338" 
d="M51 82c13.333 -8 29.168 -14.668 47.501 -20.001s37.166 -8 56.499 -8c22 0 40.667 5.33301 56 16s23 28.334 23 53.001c0 20.667 -4.66699 37.667 -14 51s-21.166 25.333 -35.499 36s-29.833 20.5 -46.5 29.5s-32.167 19.833 -46.5 32.5s-26.166 27.667 -35.499 45
s-14 39.333 -14 66c0 42.667 11.5 74.834 34.5 96.501s55.5 32.5 97.5 32.5c27.333 0 51 -2.5 71 -7.5s37.333 -11.833 52 -20.5l-19 -60c-12.667 6.66699 -27.334 12.167 -44.001 16.5s-33.667 6.5 -51 6.5c-24 0 -41.5 -5 -52.5 -15s-16.5 -25.667 -16.5 -47
c0 -16.667 4.66699 -30.834 14 -42.501s21.166 -22.334 35.499 -32.001s29.833 -19.5 46.5 -29.5s32.167 -21.833 46.5 -35.5s26.166 -30 35.499 -49s14 -42.833 14 -71.5c0 -33.333 -9.66699 -62.666 -29 -87.999s-48.333 -40.666 -87 -45.999l-15 -34
c43.333 -10 65 -35 65 -75c0 -26 -9.5 -47.5 -28.5 -64.5s-44.5 -25.5 -76.5 -25.5c-13.333 0 -25.666 1.33301 -36.999 4l7 39c15.333 -1.33301 27.5 -1 36.5 1s15.833 5 20.5 9s7.66699 8.5 9 13.5s2 9.83301 2 14.5c0 18.667 -23 31 -69 37l35 79
c-24 1.33301 -45.167 4.66602 -63.5 9.99902s-33.833 12 -46.5 20z" />
    <glyph glyph-name="Scaron" unicode="&#x160;" horiz-adv-x="428" 
d="M59 93c12.667 -8.66699 30.5 -16.8301 53.5 -24.4971s49.167 -11.5 78.5 -11.5c37.333 0 67.666 9.16699 90.999 27.5s35 47.166 35 86.499c0 26 -6.66699 48.667 -20 68s-30 37.166 -50 53.499s-41.5 32.333 -64.5 48s-44.5 33 -64.5 52s-36.667 40.833 -50 65.5
s-20 54.334 -20 89.001c0 56 16.833 97.5 50.5 124.5s77.5 40.5 131.5 40.5c33.333 0 63 -3 89 -9s47 -13.667 63 -23l-24 -66c-12 7.33301 -29.167 14 -51.5 20s-48.166 9 -77.499 9c-36 0 -62.667 -8.83301 -80 -26.5s-26 -39.834 -26 -66.501
c0 -23.333 6.66699 -44 20 -62s30 -35 50 -51s41.5 -32.167 64.5 -48.5s44.5 -34.5 64.5 -54.5s36.667 -42.667 50 -68s20 -55.333 20 -90c0 -58.667 -17.333 -104.667 -52 -138s-83.667 -50 -147 -50c-40 0 -72.833 3.66699 -98.5 11s-46.167 15.666 -61.5 24.999z
M259 746.004h-53l-102 103v21h69l47 -50l14 -34l15 33l50 51h66v-22z" />
    <glyph glyph-name="scaron" unicode="&#x161;" horiz-adv-x="338" 
d="M51 82c13.333 -8 29.167 -14.832 47.5 -20.499s37.166 -8.5 56.499 -8.5c22 0 40.667 5.5 56 16.5s23 28.833 23 53.5c0 20.667 -4.66699 37.667 -14 51s-21.166 25.333 -35.499 36s-29.833 20.5 -46.5 29.5s-32.167 19.833 -46.5 32.5s-26.166 27.667 -35.499 45
s-14 39.333 -14 66c0 42.667 11.5 74.834 34.5 96.501s55.5 32.5 97.5 32.5c27.333 0 51 -2.5 71 -7.5s37.333 -11.833 52 -20.5l-19 -60c-12.667 6.66699 -27.334 12.167 -44.001 16.5s-33.667 6.5 -51 6.5c-24 0 -41.5 -5 -52.5 -15s-16.5 -25.667 -16.5 -47
c0 -16.667 4.66699 -30.834 14 -42.501s21.166 -22.334 35.499 -32.001s29.833 -19.5 46.5 -29.5s32.167 -21.833 46.5 -35.5s26.166 -30 35.499 -49s14 -42.833 14 -71.5c0 -18.667 -3 -36.334 -9 -53.001s-15.167 -31.167 -27.5 -43.5s-27.666 -22.166 -45.999 -29.499
s-39.833 -11 -64.5 -11c-29.333 0 -54.666 2.83301 -75.999 8.5s-39.333 13.167 -54 22.5zM186.001 550.001h-38l-93 182h68l31 -66l17 -58l17 58l36 66h61z" />
    <glyph glyph-name="Tcedilla" unicode="&#x162;" horiz-adv-x="447" 
d="M186 0l-0.000976562 631h-172v69h419v-69h-172v-631h-12l-19 -43c43.333 -10 65 -35 65 -75c0 -26 -9.5 -47.5 -28.5 -64.5s-44.5 -25.5 -76.5 -25.5c-13.333 0 -25.666 1.33301 -36.999 4l7 39c15.333 -1.33301 27.5 -1 36.5 1s15.833 5 20.5 9s7.66699 8.5 9 13.5
s2 9.83301 2 14.5c0 18.667 -23 31 -69 37l40 90h-13z" />
    <glyph glyph-name="tcedilla" unicode="&#x163;" horiz-adv-x="275" 
d="M9 500h61v99l72 23v-122h108v-65h-108v-298c0 -29.333 3.5 -50.333 10.5 -63s18.5 -19 34.5 -19c13.333 0 24.833 1.5 34.5 4.5s20.167 6.83301 31.5 11.5l14 -58c-20 -9.33301 -41 -16 -63 -20h-1l-16 -36c43.333 -10 65 -35 65 -75c0 -26 -9.5 -47.5 -28.5 -64.5
s-44.5 -25.5 -76.5 -25.5c-13.333 0 -25.666 1.33301 -36.999 4l7 39c15.333 -1.33301 27.5 -1 36.5 1s15.833 5 20.5 9s7.66699 8.5 9 13.5s2 9.83301 2 14.5c0 18.667 -23 31 -69 37l35 80c-28.667 2 -49.334 13.833 -62.001 35.5s-19 55.5 -19 101.5v308h-61v65z" />
    <glyph glyph-name="Tcaron" unicode="&#x164;" horiz-adv-x="447" 
d="M433 631h-172v-631h-75v631h-172v69h419v-69zM249 746h-53l-102 103v21h69l47 -50l14 -34l15 33l50 51h66v-22z" />
    <glyph glyph-name="tcaron" unicode="&#x165;" horiz-adv-x="275" 
d="M9 500l61 -0.00195312v99l72 23v-122h108v-65h-108v-298c0 -29.333 3.5 -50.5 10.5 -63.5s18.5 -19.5 34.5 -19.5c13.333 0 24.833 1.5 34.5 4.5s20.167 6.83301 31.5 11.5l14 -57c-14.667 -7.33301 -30.834 -13.166 -48.501 -17.499s-36.167 -6.5 -55.5 -6.5
c-33.333 0 -57.166 10.833 -71.499 32.5s-21.5 56.834 -21.5 105.501v308h-61v65zM268 713.998c-1.33301 -19.333 -4.66699 -39.001 -10 -59.001s-11.666 -38.667 -18.999 -56s-14.833 -32.5 -22.5 -45.5s-13.834 -22.5 -18.501 -28.5l-30 15
c9.33301 24 16.333 51.333 21 82s7 61.334 7 92.001h72z" />
    <glyph glyph-name="Umacron" unicode="&#x16a;" horiz-adv-x="521" 
d="M385 700l71.999 0.000976562v-469c0 -84.667 -16.5 -145.834 -49.5 -183.501s-79.833 -56.5 -140.5 -56.5c-70.667 0 -122.167 18.333 -154.5 55s-48.5 93 -48.5 169v485h75v-446c0 -36 2.33301 -66.333 7 -91s12.334 -44.667 23.001 -60s24 -26.333 40 -33
s35.667 -10 59 -10c44 0 74.5 15.333 91.5 46s25.5 80 25.5 148v446zM132.999 843.001h259v-62h-259v62z" />
    <glyph glyph-name="umacron" unicode="&#x16b;" horiz-adv-x="434" 
d="M124 500l-0.000976562 -305.999c0 -50.667 5.16699 -86.834 15.5 -108.501s29.166 -32.5 56.499 -32.5c14 0 26.5 2.83301 37.5 8.5s20.833 13.167 29.5 22.5s16.334 20 23.001 32s12 24.333 16 37v347h72v-358c0 -24 0.833008 -48.833 2.5 -74.5
s4.16699 -48.167 7.5 -67.5h-51l-18 70h-3c-11.333 -22 -27.666 -41.167 -48.999 -57.5s-48 -24.5 -80 -24.5c-21.333 0 -40 2.66699 -56 8s-29.667 15 -41 29s-19.833 33.167 -25.5 57.5s-8.5 55.5 -8.5 93.5v324h72zM93.999 643.001h243v-59h-243v59z" />
    <glyph glyph-name="Ubreve" unicode="&#x16c;" horiz-adv-x="521" 
d="M385 700l71.999 0.000976562v-469c0 -84.667 -16.5 -145.834 -49.5 -183.501s-79.833 -56.5 -140.5 -56.5c-70.667 0 -122.167 18.333 -154.5 55s-48.5 93 -48.5 169v485h75v-446c0 -36 2.33301 -66.333 7 -91s12.334 -44.667 23.001 -60s24 -26.333 40 -33
s35.667 -10 59 -10c44 0 74.5 15.333 91.5 46s25.5 80 25.5 148v446zM156.999 871.001c9.33301 -22.667 23.335 -41 42.002 -55s40.667 -21 66 -21c26 0 47.5 7.5 64.5 22.5s29.833 32.833 38.5 53.5l36 -16c-10 -42 -28.167 -73.333 -54.5 -94s-54.833 -31 -85.5 -31
c-28.667 0 -56.834 9.66699 -84.501 29s-47.834 50 -60.501 92z" />
    <glyph glyph-name="ubreve" unicode="&#x16d;" horiz-adv-x="434" 
d="M124 500l-0.000976562 -305.999c0 -50.667 5.16699 -86.834 15.5 -108.501s29.166 -32.5 56.499 -32.5c14 0 26.5 2.83301 37.5 8.5s20.833 13.167 29.5 22.5s16.334 20 23.001 32s12 24.333 16 37v347h72v-358c0 -24 0.833008 -48.833 2.5 -74.5
s4.16699 -48.167 7.5 -67.5h-51l-18 70h-3c-11.333 -22 -27.666 -41.167 -48.999 -57.5s-48 -24.5 -80 -24.5c-21.333 0 -40 2.66699 -56 8s-29.667 15 -41 29s-19.833 33.167 -25.5 57.5s-8.5 55.5 -8.5 93.5v324h72zM125.999 717.001c9.33301 -24 22 -43.166 38 -57.499
s33.667 -21.5 53 -21.5c18.667 0 35.167 7 49.5 21s25.833 33.333 34.5 58l37 -15c-1.33301 -17.333 -5.5 -33.833 -12.5 -49.5s-15.833 -29.334 -26.5 -41.001s-23.167 -21 -37.5 -28s-29.5 -10.5 -45.5 -10.5c-31.333 0 -58.833 11 -82.5 33s-39.167 53 -46.5 93z" />
    <glyph glyph-name="Uring" unicode="&#x16e;" horiz-adv-x="521" 
d="M385 700l71.999 0.000976562v-469c0 -84.667 -16.5 -145.834 -49.5 -183.501s-79.833 -56.5 -140.5 -56.5c-70.667 0 -122.167 18.333 -154.5 55s-48.5 93 -48.5 169v485h75v-446c0 -36 2.33301 -66.333 7 -91s12.334 -44.667 23.001 -60s24 -26.333 40 -33
s35.667 -10 59 -10c44 0 74.5 15.333 91.5 46s25.5 80 25.5 148v446zM173.999 768.001c0 24.667 6.99902 45 20.999 61s37 24 69 24c28.667 0 50.834 -7.16699 66.501 -21.5s23.5 -35.5 23.5 -63.5c0 -24 -7.5 -43.833 -22.5 -59.5s-37.5 -23.5 -67.5 -23.5
s-52.5 7.5 -67.5 22.5s-22.5 35.167 -22.5 60.5zM227.998 768.001c0 -12 2.83203 -21.833 8.49902 -29.5s14.834 -11.5 27.501 -11.5c24 0 36 13.667 36 41c0 28.667 -12 43 -36 43s-36 -14.333 -36 -43z" />
    <glyph glyph-name="uring" unicode="&#x16f;" horiz-adv-x="434" 
d="M124 500l-0.000976562 -305.999c0 -50.667 5.16699 -86.834 15.5 -108.501s29.166 -32.5 56.499 -32.5c14 0 26.5 2.83301 37.5 8.5s20.833 13.167 29.5 22.5s16.334 20 23.001 32s12 24.333 16 37v347h72v-358c0 -24 0.833008 -48.833 2.5 -74.5
s4.16699 -48.167 7.5 -67.5h-51l-18 70h-3c-11.333 -22 -27.666 -41.167 -48.999 -57.5s-48 -24.5 -80 -24.5c-21.333 0 -40 2.66699 -56 8s-29.667 15 -41 29s-19.833 33.167 -25.5 57.5s-8.5 55.5 -8.5 93.5v324h72zM130.999 643.001c0 28 7.33301 49.833 22 65.5
s34.667 23.5 60 23.5c24 0 43.833 -7 59.5 -21s23.5 -36.667 23.5 -68c0 -26.667 -7.5 -48 -22.5 -64s-35.167 -24 -60.5 -24s-45.333 7.5 -60 22.5s-22 36.833 -22 65.5zM178.999 643.001c0 -15.333 3.33301 -26.833 10 -34.5s14.667 -11.5 24 -11.5
c10.667 0 19.167 3.66699 25.5 11s9.5 19 9.5 35s-3.5 27.833 -10.5 35.5s-15.167 11.5 -24.5 11.5s-17.333 -3.66699 -24 -11s-10 -19.333 -10 -36z" />
    <glyph glyph-name="Uhungarumlaut" unicode="&#x170;" horiz-adv-x="521" 
d="M385 700l71.999 0.000976562v-469c0 -84.667 -16.5 -145.834 -49.5 -183.501s-79.833 -56.5 -140.5 -56.5c-70.667 0 -122.167 18.333 -154.5 55s-48.5 93 -48.5 169v485h75v-446c0 -36 2.33301 -66.333 7 -91s12.334 -44.667 23.001 -60s24 -26.333 40 -33
s35.667 -10 59 -10c44 0 74.5 15.333 91.5 46s25.5 80 25.5 148v446zM216.999 850.001h81v-16l-80 -93h-52zM352.999 850.001h86v-16l-115 -93h-52z" />
    <glyph glyph-name="uhungarumlaut" unicode="&#x171;" horiz-adv-x="434" 
d="M124 500l-0.000976562 -305.999c0 -50.667 5.16699 -86.834 15.5 -108.501s29.166 -32.5 56.499 -32.5c14 0 26.5 2.83301 37.5 8.5s20.833 13.167 29.5 22.5s16.334 20 23.001 32s12 24.333 16 37v347h72v-358c0 -24 0.833008 -48.833 2.5 -74.5
s4.16699 -48.167 7.5 -67.5h-51l-18 70h-3c-11.333 -22 -27.666 -41.167 -48.999 -57.5s-48 -24.5 -80 -24.5c-21.333 0 -40 2.66699 -56 8s-29.667 15 -41 29s-19.833 33.167 -25.5 57.5s-8.5 55.5 -8.5 93.5v324h72zM162.999 700.001h69v-16l-58 -113h-39z
M285.999 700.001h75v-16l-92 -113h-42z" />
    <glyph glyph-name="Uogonek" unicode="&#x172;" horiz-adv-x="521" 
d="M385 700l71.9971 0.00195312v-469c0 -64.667 -9.83301 -115.5 -29.5 -152.5s-47.5 -62.167 -83.5 -75.5c-15.333 -11.333 -27.166 -24.333 -35.499 -39s-12.5 -32 -12.5 -52c0 -9.33301 1.66699 -17.833 5 -25.5s8 -13.834 14 -18.501s13.5 -7.33398 22.5 -8.00098
s19.5 1.33301 31.5 6l11 -40c-7.33301 -6.66699 -18.166 -12 -32.499 -16s-27.5 -6 -39.5 -6c-26 0 -46.667 8.16699 -62 24.5s-23.333 37.5 -24 63.5c0.666992 20 5.5 38.5 14.5 55.5s21.833 31.5 38.5 43.5h-8c-70.667 0 -122.167 18.333 -154.5 55s-48.5 93 -48.5 169
v485h75v-446c0 -36 2.33301 -66.333 7 -91s12.334 -44.667 23.001 -60s24 -26.333 40 -33s35.667 -10 59 -10c44 0 74.5 15.333 91.5 46s25.5 80 25.5 148v446z" />
    <glyph glyph-name="uogonek" unicode="&#x173;" horiz-adv-x="434" 
d="M124 500v-305.998c0 -50.667 5.16699 -86.834 15.5 -108.501s29.166 -32.5 56.499 -32.5c14 0 26.5 2.83301 37.5 8.5s20.833 13.167 29.5 22.5s16.334 20 23.001 32s12 24.333 16 37v347h72v-358c0 -24 0.833008 -48.833 2.5 -74.5s4.16699 -48.167 7.5 -67.5h-13
c-15.333 -10.667 -28 -23 -38 -37s-14.667 -31 -14 -51c0 -9.33301 1.66699 -17.833 5 -25.5s8.33301 -13.834 15 -18.501s14.667 -7 24 -7s19.666 3.33301 30.999 10l11 -43c-8 -8 -19.167 -14 -33.5 -18s-27.833 -6 -40.5 -6c-25.333 0 -45.5 8 -60.5 24
s-22.5 37.667 -22.5 65c0 28 7.5 51 22.5 69s35.167 32.667 60.5 44l-16 64h-3c-11.333 -22 -27.666 -41.167 -48.999 -57.5s-48 -24.5 -80 -24.5c-21.333 0 -40 2.66699 -56 8s-29.667 15 -41 29s-19.833 33.167 -25.5 57.5s-8.5 55.5 -8.5 93.5v324h72z" />
    <glyph glyph-name="Ydieresis" unicode="&#x178;" horiz-adv-x="455" 
d="M191 278l-186 422h88l126 -305l13 -61h2l13 63l122 303h81l-184 -421v-279h-75v278zM105 794c0 14 4.16699 25.333 12.5 34s19.833 13 34.5 13c14 0 25.167 -4.33301 33.5 -13s12.5 -20 12.5 -34s-4.16699 -25.167 -12.5 -33.5s-19.5 -12.5 -33.5 -12.5
c-14.667 0 -26.167 4.16699 -34.5 12.5s-12.5 19.5 -12.5 33.5zM263 794c0 14 4.16699 25.333 12.5 34s19.5 13 33.5 13c14.667 0 26.167 -4.33301 34.5 -13s12.5 -20 12.5 -34s-4.16699 -25.167 -12.5 -33.5s-19.833 -12.5 -34.5 -12.5c-14 0 -25.167 4.16699 -33.5 12.5
s-12.5 19.5 -12.5 33.5z" />
    <glyph glyph-name="Zacute" unicode="&#x179;" horiz-adv-x="439" 
d="M29 69l278 522l33 40h-311v69h381v-69l-279 -525l-32 -37h311v-69h-381v69zM266 870h99v-21l-131 -97h-61z" />
    <glyph glyph-name="zacute" unicode="&#x17a;" horiz-adv-x="360" 
d="M32 65l186 327l35 43h-221v65h292v-65l-187 -330l-34 -40h221v-65h-292v65zM193 720h78v-21l-82 -128h-43z" />
    <glyph glyph-name="Zdotaccent" unicode="&#x17b;" horiz-adv-x="439" 
d="M29 69l278 522l33 40h-311v69h381v-69l-279 -525l-32 -37h311v-69h-381v69zM167 797c0 14 4.66699 26.167 14 36.5s22.666 15.5 39.999 15.5s30.833 -5.16699 40.5 -15.5s14.5 -22.5 14.5 -36.5c0 -15.333 -4.83301 -28 -14.5 -38s-23.167 -15 -40.5 -15
s-30.666 5 -39.999 15s-14 22.667 -14 38z" />
    <glyph glyph-name="zdotaccent" unicode="&#x17c;" horiz-adv-x="360" 
d="M32 65l186 327l35 43h-221v65h292v-65l-187 -330l-34 -40h221v-65h-292v65zM134 652c0 16 4.5 29.002 13.5 39.002s20.833 15 35.5 15s26.834 -4.83301 36.501 -14.5s14.5 -22.834 14.5 -39.501c0 -16 -4.83301 -28.5 -14.5 -37.5s-21.834 -13.5 -36.501 -13.5
s-26.5 4.66699 -35.5 14s-13.5 21.666 -13.5 36.999z" />
    <glyph glyph-name="Zcaron" unicode="&#x17d;" horiz-adv-x="439" 
d="M29 69l278 522l33 40h-311v69h381v-69l-279 -525l-32 -37h311v-69h-381v69zM237 746h-53l-102 103v21h69l47 -50l14 -34l15 33l50 51h66v-22z" />
    <glyph glyph-name="zcaron" unicode="&#x17e;" horiz-adv-x="360" 
d="M32 65l186 327l35 43h-221v65h292v-65l-187 -330l-34 -40h221v-65h-292v65zM195 550h-38l-93 182h68l31 -66l17 -58l17 58l36 66h61z" />
    <glyph glyph-name="longs" unicode="&#x17f;" horiz-adv-x="206" 
d="M16 500h61.001v28c0 62.667 9 108 27 136s48.333 42 91 42c18.667 0 35 -1.16699 49 -3.5s28.333 -6.83301 43 -13.5l-18 -60c-12.667 5.33301 -23.834 8.66602 -33.501 9.99902s-19.167 2 -28.5 2c-13.333 0 -23.833 -2.66699 -31.5 -8s-13.5 -13.666 -17.5 -24.999
s-6.5 -25.833 -7.5 -43.5s-1.5 -39.167 -1.5 -64.5v-500h-72v435h-61v65z" />
    <glyph glyph-name="florin" unicode="&#x192;" 
d="M259 435l-62 -469c-3.33301 -24.667 -8 -47.5 -14 -68.5s-14 -39.333 -24 -55s-22.333 -28 -37 -37s-32.334 -13.5 -53.001 -13.5c-16 0 -33.5 1.83301 -52.5 5.5s-35.167 8.83398 -48.5 15.501l20 61c12 -5.33301 23.5 -9.5 34.5 -12.5s23.167 -4.5 36.5 -4.5
c20 0 35.333 12 46 36s19.334 62.333 26.001 115l53 427h-67v65h77l9 67c6.66699 48.667 18.5 85 35.5 109s45.5 36 85.5 36c18 0 36.167 -1.83301 54.5 -5.5s34.5 -8.83398 48.5 -15.501l-20 -60c-24 10.667 -48 16 -72 16c-20 0 -34 -8.5 -42 -25.5
s-14.333 -43.833 -19 -80.5l-5 -41h97v-65h-107z" />
    <glyph glyph-name="uni01F4" unicode="&#x1f4;" horiz-adv-x="492" 
d="M257 349h192.995v-308c-18.667 -17.333 -42.667 -30.5 -72 -39.5s-59 -13.5 -89 -13.5c-37.333 0 -71.166 7 -101.499 21s-56.166 35.833 -77.499 65.5s-37.833 67.167 -49.5 112.5s-17.5 99.666 -17.5 162.999c0 65.333 7 120.833 21 166.5s32.833 83 56.5 112
s50.667 50.167 81 63.5s61.5 20 93.5 20s58.833 -2.16699 80.5 -6.5s40.167 -10.166 55.5 -17.499l-18 -68c-13.333 7.33301 -29.166 13 -47.499 17s-39.5 6 -63.5 6c-23.333 0 -45.666 -5 -66.999 -15s-40.5 -26.5 -57.5 -49.5s-30.5 -53.167 -40.5 -90.5
s-15 -83.333 -15 -138c0 -100 15.833 -173.833 47.5 -221.5s75.167 -71.5 130.5 -71.5c34.667 0 63.334 8.33301 86.001 25v204l-129 19v44zM340.995 870h99v-21l-131 -97h-61z" />
    <glyph glyph-name="uni01F5" unicode="&#x1f5;" horiz-adv-x="432" 
d="M374 -23c0 -64.667 -14.333 -112.333 -43 -143s-70.334 -46 -125.001 -46c-33.333 0 -60.666 2.83301 -81.999 8.5s-38.666 12.167 -51.999 19.5l21 62c13.333 -6 28 -11.667 44 -17s35.667 -8 59 -8c40.667 0 68.5 11.333 83.5 34s22.5 60.667 22.5 114v37h-3
c-10.667 -15.333 -24.334 -27.333 -41.001 -36s-38 -13 -64 -13c-54 0 -93.667 20.833 -119 62.5s-38 107.167 -38 196.5c0 86 16.5 151 49.5 195s81.833 66 146.5 66c31.333 0 58.333 -3 81 -9s42.667 -13 60 -21v-502zM302 428.001
c-20 10.667 -45.668 16.002 -77.001 16.002c-34 0 -61.333 -15.5 -82 -46.5s-31 -80.5 -31 -148.5c0 -28 1.66699 -53.833 5 -77.5s9 -44.334 17 -62.001s18.167 -31.334 30.5 -41.001s27.5 -14.5 45.5 -14.5c25.333 0 45.333 6.66699 60 20s25.334 33.333 32.001 60v294z
M245.999 720.003h78v-21l-82 -128h-43z" />
    <glyph glyph-name="Scommaaccent" unicode="&#x218;" horiz-adv-x="428" 
d="M59 93c12.667 -8.66699 30.5 -16.8301 53.5 -24.4971s49.167 -11.5 78.5 -11.5c37.333 0 67.666 9.16699 90.999 27.5s35 47.166 35 86.499c0 26 -6.66699 48.667 -20 68s-30 37.166 -50 53.499s-41.5 32.333 -64.5 48s-44.5 33 -64.5 52s-36.667 40.833 -50 65.5
s-20 54.334 -20 89.001c0 56 16.833 97.5 50.5 124.5s77.5 40.5 131.5 40.5c33.333 0 63 -3 89 -9s47 -13.667 63 -23l-24 -66c-12 7.33301 -29.167 14 -51.5 20s-48.166 9 -77.499 9c-36 0 -62.667 -8.83301 -80 -26.5s-26 -39.834 -26 -66.501
c0 -23.333 6.66699 -44 20 -62s30 -35 50 -51s41.5 -32.167 64.5 -48.5s44.5 -34.5 64.5 -54.5s36.667 -42.667 50 -68s20 -55.333 20 -90c0 -58.667 -17.333 -104.667 -52 -138s-83.667 -50 -147 -50c-40 0 -72.833 3.66699 -98.5 11s-46.167 15.666 -61.5 24.999z
M157 -101.996c0 14 4.33105 25.334 12.998 34.001s19 13 31 13c14.667 0 27.334 -5.66699 38.001 -17s16 -30.666 16 -57.999c0 -17.333 -2.5 -32.5 -7.5 -45.5s-11 -24.333 -18 -34s-14.333 -17.334 -22 -23.001s-14.5 -9.83398 -20.5 -12.501l-27 27
c11.333 8.66699 20.833 19.167 28.5 31.5s11.167 26.5 10.5 42.5c-11.333 -1.33301 -21.166 1.66699 -29.499 9s-12.5 18.333 -12.5 33z" />
    <glyph glyph-name="scommaaccent" unicode="&#x219;" horiz-adv-x="338" 
d="M51 82c13.333 -8 29.167 -14.832 47.5 -20.499s37.166 -8.5 56.499 -8.5c22 0 40.667 5.5 56 16.5s23 28.833 23 53.5c0 20.667 -4.66699 37.667 -14 51s-21.166 25.333 -35.499 36s-29.833 20.5 -46.5 29.5s-32.167 19.833 -46.5 32.5s-26.166 27.667 -35.499 45
s-14 39.333 -14 66c0 42.667 11.5 74.834 34.5 96.501s55.5 32.5 97.5 32.5c27.333 0 51 -2.5 71 -7.5s37.333 -11.833 52 -20.5l-19 -60c-12.667 6.66699 -27.334 12.167 -44.001 16.5s-33.667 6.5 -51 6.5c-24 0 -41.5 -5 -52.5 -15s-16.5 -25.667 -16.5 -47
c0 -16.667 4.66699 -30.834 14 -42.501s21.166 -22.334 35.499 -32.001s29.833 -19.5 46.5 -29.5s32.167 -21.833 46.5 -35.5s26.166 -30 35.499 -49s14 -42.833 14 -71.5c0 -18.667 -3 -36.334 -9 -53.001s-15.167 -31.167 -27.5 -43.5s-27.666 -22.166 -45.999 -29.499
s-39.833 -11 -64.5 -11c-29.333 0 -54.666 2.83301 -75.999 8.5s-39.333 13.167 -54 22.5zM117.001 -101.999c0 14 4.33105 25.334 12.998 34.001s19 13 31 13c14.667 0 27.334 -5.66699 38.001 -17s16 -30.666 16 -57.999c0 -17.333 -2.5 -32.5 -7.5 -45.5
s-11 -24.333 -18 -34s-14.333 -17.334 -22 -23.001s-14.5 -9.83398 -20.5 -12.501l-27 27c11.333 8.66699 20.833 19.167 28.5 31.5s11.167 26.5 10.5 42.5c-11.333 -1.33301 -21.166 1.66699 -29.499 9s-12.5 18.333 -12.5 33z" />
    <glyph glyph-name="Tcommaaccent" unicode="&#x21a;" horiz-adv-x="447" 
d="M433 631h-172v-631h-75v631h-172v69h419v-69zM175 -102c0 14 4.33105 25.334 12.998 34.001s19 13 31 13c14.667 0 27.334 -5.66699 38.001 -17s16 -30.666 16 -57.999c0 -17.333 -2.5 -32.5 -7.5 -45.5s-11 -24.333 -18 -34s-14.333 -17.334 -22 -23.001
s-14.5 -9.83398 -20.5 -12.501l-27 27c11.333 8.66699 20.833 19.167 28.5 31.5s11.167 26.5 10.5 42.5c-11.333 -1.33301 -21.166 1.66699 -29.499 9s-12.5 18.333 -12.5 33z" />
    <glyph glyph-name="tcommaaccent" unicode="&#x21b;" horiz-adv-x="275" 
d="M9 500l61 -0.00195312v99l72 23v-122h108v-65h-108v-298c0 -29.333 3.5 -50.5 10.5 -63.5s18.5 -19.5 34.5 -19.5c13.333 0 24.833 1.5 34.5 4.5s20.167 6.83301 31.5 11.5l14 -57c-14.667 -7.33301 -30.834 -13.166 -48.501 -17.499s-36.167 -6.5 -55.5 -6.5
c-33.333 0 -57.166 10.833 -71.499 32.5s-21.5 56.834 -21.5 105.501v308h-61v65zM104 -102.002c0 14 4.33105 25.334 12.998 34.001s19 13 31 13c14.667 0 27.334 -5.66699 38.001 -17s16 -30.666 16 -57.999c0 -17.333 -2.5 -32.5 -7.5 -45.5s-11 -24.333 -18 -34
s-14.333 -17.334 -22 -23.001s-14.5 -9.83398 -20.5 -12.501l-27 27c11.333 8.66699 20.833 19.167 28.5 31.5s11.167 26.5 10.5 42.5c-11.333 -1.33301 -21.166 1.66699 -29.499 9s-12.5 18.333 -12.5 33z" />
    <glyph glyph-name="uni0237" unicode="&#x237;" horiz-adv-x="215" 
d="M72 500l72 0.000976562v-527c0 -68.667 -11 -118.167 -33 -148.5s-57.667 -41.833 -107 -34.5v65c14.667 0 26.5 3 35.5 9s16 15.167 21 27.5s8.16699 27.666 9.5 45.999s2 39.833 2 64.5v498z" />
    <glyph glyph-name="afii57929" unicode="&#x2bc;" horiz-adv-x="162" 
d="M31 659c0 15.333 4.33594 27.332 13.0029 35.999s19.667 13 33 13c16 0 29 -5.5 39 -16.5s15 -27.833 15 -50.5c0 -21.333 -2.66699 -40 -8 -56s-11.833 -29.5 -19.5 -40.5s-15.834 -20 -24.501 -27s-16 -12.167 -22 -15.5l-23 30
c11.333 7.33301 21.166 17.833 29.499 31.5s12.166 29.5 11.499 47.5c-12 -2 -22.333 1.33301 -31 10s-13 21.334 -13 38.001z" />
    <glyph glyph-name="circumflex" unicode="&#x2c6;" horiz-adv-x="343" 
d="M159 732h35l89 -182h-63l-32 66l-16 58l-17 -58l-36 -66h-59z" />
    <glyph glyph-name="caron" unicode="&#x2c7;" horiz-adv-x="350" 
d="M191 550h-38l-93 182h68l31 -66l17 -58l17 58l36 66h61z" />
    <glyph glyph-name="breve" unicode="&#x2d8;" horiz-adv-x="371" 
d="M99 717c9.33301 -24 22 -43.166 38 -57.499s33.667 -21.5 53 -21.5c18.667 0 35.167 7 49.5 21s25.833 33.333 34.5 58l37 -15c-1.33301 -17.333 -5.5 -33.833 -12.5 -49.5s-15.833 -29.334 -26.5 -41.001s-23.167 -21 -37.5 -28s-29.5 -10.5 -45.5 -10.5
c-31.333 0 -58.833 11 -82.5 33s-39.167 53 -46.5 93z" />
    <glyph glyph-name="dotaccent" unicode="&#x2d9;" horiz-adv-x="220" 
d="M60 652c0 16 4.5 29.002 13.5 39.002s20.833 15 35.5 15s26.834 -4.83301 36.501 -14.5s14.5 -22.834 14.5 -39.501c0 -16 -4.83301 -28.5 -14.5 -37.5s-21.834 -13.5 -36.501 -13.5s-26.5 4.66699 -35.5 14s-13.5 21.666 -13.5 36.999z" />
    <glyph glyph-name="ring" unicode="&#x2da;" horiz-adv-x="285" 
d="M60 643c0 28 7.33301 49.833 22 65.5s34.667 23.5 60 23.5c24 0 43.833 -7 59.5 -21s23.5 -36.667 23.5 -68c0 -26.667 -7.5 -48 -22.5 -64s-35.167 -24 -60.5 -24s-45.333 7.5 -60 22.5s-22 36.833 -22 65.5zM108 643c0 -15.333 3.33301 -26.833 10 -34.5
s14.667 -11.5 24 -11.5c10.667 0 19.167 3.66699 25.5 11s9.5 19 9.5 35s-3.5 27.833 -10.5 35.5s-15.167 11.5 -24.5 11.5s-17.333 -3.66699 -24 -11s-10 -19.333 -10 -36z" />
    <glyph glyph-name="ogonek" unicode="&#x2db;" horiz-adv-x="278" 
d="M195 10c-19.333 -10.667 -34.666 -24.1699 -45.999 -40.5029s-17 -35.166 -17 -56.499c0.666992 -19.333 7.33398 -34.166 20.001 -44.499s31.334 -10.5 56.001 -0.5l10 -40c-7.33301 -7.33301 -17.833 -13 -31.5 -17s-26.834 -6 -39.501 -6
c-26.667 0 -47.834 8 -63.501 24s-23.5 36.667 -23.5 62c0 28.667 8.16699 52.834 24.5 72.501s37.166 35.167 62.499 46.5h48z" />
    <glyph glyph-name="tilde" unicode="&#x2dc;" horiz-adv-x="362" 
d="M60 653c18 22.667 34 38.1641 48 46.4971s26.667 12.5 38 12.5c9.33301 0 18 -2 26 -6s15.833 -8.16699 23.5 -12.5l22 -12.5c7 -4 14.5 -6 22.5 -6c6 0 12.167 1.5 18.5 4.5s13.166 8.5 20.499 16.5l23 -38c-16 -19.333 -30.167 -32.666 -42.5 -39.999
s-23.833 -11 -34.5 -11c-9.33301 0 -18 1.83301 -26 5.5s-15.833 7.83398 -23.5 12.501s-15.167 8.83398 -22.5 12.501s-15 5.5 -23 5.5c-7.33301 0 -14.666 -1.83301 -21.999 -5.5s-15.333 -10.167 -24 -19.5z" />
    <glyph glyph-name="hungarumlaut" unicode="&#x2dd;" horiz-adv-x="346" 
d="M88 700h69v-16l-58 -113h-39zM211 700h75v-16l-92 -113h-42z" />
    <glyph glyph-name="acutecomb" unicode="&#x301;" horiz-adv-x="2" 
d="M-290 720h78v-21l-82 -128h-43z" />
    <glyph glyph-name="uni0394" unicode="&#x394;" horiz-adv-x="459" 
d="M11 0v37l201 674h35l204 -674v-37h-440zM91 65h277l-121 402l-18 114h-3l-21 -116z" />
    <glyph glyph-name="uni0394" unicode="&#x2206;" horiz-adv-x="459" 
d="M11 0v37l201 674h35l204 -674v-37h-440zM91 65h277l-121 402l-18 114h-3l-21 -116z" />
    <glyph glyph-name="uni03A9" unicode="&#x3a9;" horiz-adv-x="640" 
d="M58 65l91.001 0.00195312l75 -10v27l-43 10c-16.667 10 -32.5 24 -47.5 42s-28 39.167 -39 63.5s-19.833 51.5 -26.5 81.5s-10 62.333 -10 97c0 52.667 6.16699 99.667 18.5 141s29.833 76.5 52.5 105.5s50 51.167 82 66.5s68 23 108 23c42 0 79.333 -8.33301 112 -25
s60.167 -40 82.5 -70s39.333 -65.833 51 -107.5s17.5 -87.5 17.5 -137.5c0 -36 -3.66699 -68.833 -11 -98.5s-16.833 -56.334 -28.5 -80.001s-24.834 -43.834 -39.501 -60.501s-29 -30 -43 -40l-45 -11v-27l76 10h91v-65h-233v116c15.333 4 32 11.667 50 23
s34.667 27.5 50 48.5s28.166 47.167 38.499 78.5s15.5 68.333 15.5 111c0 32 -3.5 64 -10.5 96s-18 60.5 -33 85.5s-34 45.333 -57 61s-50.833 23.5 -83.5 23.5c-58.667 0 -103.667 -22.833 -135 -68.5s-47 -112.5 -47 -200.5c0 -42 4.83301 -78.333 14.5 -109
s21.834 -56.5 36.501 -77.5s31 -37.333 49 -49s35.667 -19.167 53 -22.5v-116h-232v65z" />
    <glyph glyph-name="uni03A9" unicode="&#x2126;" horiz-adv-x="640" 
d="M58 65l91.001 0.00195312l75 -10v27l-43 10c-16.667 10 -32.5 24 -47.5 42s-28 39.167 -39 63.5s-19.833 51.5 -26.5 81.5s-10 62.333 -10 97c0 52.667 6.16699 99.667 18.5 141s29.833 76.5 52.5 105.5s50 51.167 82 66.5s68 23 108 23c42 0 79.333 -8.33301 112 -25
s60.167 -40 82.5 -70s39.333 -65.833 51 -107.5s17.5 -87.5 17.5 -137.5c0 -36 -3.66699 -68.833 -11 -98.5s-16.833 -56.334 -28.5 -80.001s-24.834 -43.834 -39.501 -60.501s-29 -30 -43 -40l-45 -11v-27l76 10h91v-65h-233v116c15.333 4 32 11.667 50 23
s34.667 27.5 50 48.5s28.166 47.167 38.499 78.5s15.5 68.333 15.5 111c0 32 -3.5 64 -10.5 96s-18 60.5 -33 85.5s-34 45.333 -57 61s-50.833 23.5 -83.5 23.5c-58.667 0 -103.667 -22.833 -135 -68.5s-47 -112.5 -47 -200.5c0 -42 4.83301 -78.333 14.5 -109
s21.834 -56.5 36.501 -77.5s31 -37.333 49 -49s35.667 -19.167 53 -22.5v-116h-232v65z" />
    <glyph glyph-name="pi" unicode="&#x3c0;" horiz-adv-x="535" 
d="M421 112c0 -18.667 2.49414 -31.833 7.49414 -39.5s11.167 -11.5 18.5 -11.5c5.33301 0 11.333 0.833008 18 2.5s12.334 3.16699 17.001 4.5l16 -53c-9.33301 -4 -20.666 -8.16699 -33.999 -12.5s-28.666 -6.5 -45.999 -6.5c-27.333 0 -45.666 9.66699 -54.999 29
s-14 46.333 -14 81v329h-145v-435h-72v435h-13c-20 0 -37.333 -13.667 -52 -41l-43 34c10.667 24 24.334 42 41.001 54s39.334 18 68.001 18h355v-65h-67v-323z" />
    <glyph glyph-name="afii10023" unicode="&#x401;" horiz-adv-x="429" 
d="M64 700h311v-69h-236v-237h217v-69h-217v-256h241v-69h-316v700zM90 794c0 14 4.16699 25.333 12.5 34s19.833 13 34.5 13c14 0 25.167 -4.33301 33.5 -13s12.5 -20 12.5 -34s-4.16699 -25.167 -12.5 -33.5s-19.5 -12.5 -33.5 -12.5
c-14.667 0 -26.167 4.16699 -34.5 12.5s-12.5 19.5 -12.5 33.5zM248 794c0 14 4.16699 25.333 12.5 34s19.5 13 33.5 13c14.667 0 26.167 -4.33301 34.5 -13s12.5 -20 12.5 -34s-4.16699 -25.167 -12.5 -33.5s-19.833 -12.5 -34.5 -12.5c-14 0 -25.167 4.16699 -33.5 12.5
s-12.5 19.5 -12.5 33.5z" />
    <glyph glyph-name="afii10051" unicode="&#x402;" horiz-adv-x="588" 
d="M262 0l-75.001 0.000976562v631h-173v69h421v-69h-173v-216c6.66699 2.66699 19.667 7 39 13s44 9 74 9c22 0 43.167 -3.16699 63.5 -9.5s38.5 -17.5 54.5 -33.5s28.833 -37.5 38.5 -64.5s14.5 -61.5 14.5 -103.5c0 -80 -15.5 -139 -46.5 -177s-78.167 -57 -141.5 -57
c-17.333 0 -30.166 0.166992 -38.499 0.5s-14.5 1.16602 -18.5 2.49902v69c7.33301 -1.33301 15 -2.16602 23 -2.49902s19.333 -0.5 34 -0.5c72.667 0 109 52.667 109 158c0 28.667 -2.83301 52.667 -8.5 72s-13.834 34.666 -24.501 45.999s-23.167 19.333 -37.5 24
s-29.833 7 -46.5 7c-9.33301 0 -18.666 -0.833008 -27.999 -2.5s-18 -3.83398 -26 -6.50098s-15 -5.16699 -21 -7.5s-10.333 -4.16602 -13 -5.49902v-346z" />
    <glyph glyph-name="afii10052" unicode="&#x403;" horiz-adv-x="357" 
d="M370 631h-231v-631h-75v700h306v-69zM250 870h99v-21l-131 -97h-61z" />
    <glyph glyph-name="afii10053" unicode="&#x404;" horiz-adv-x="469" 
d="M432 27c-16.667 -14 -38.001 -24 -64.001 -30s-53 -9 -81 -9c-35.333 0 -68 6.66699 -98 20s-55.833 34.5 -77.5 63.5s-38.5 66.5 -50.5 112.5s-18 101.333 -18 166c0 66.667 6.83301 123 20.5 169s31.834 83.333 54.501 112s48.834 49.334 78.501 62.001
s60.167 19 91.5 19c32 0 59 -2.33301 81 -7s40.667 -10.334 56 -17.001l-19 -68c-12.667 7.33301 -28.5 13 -47.5 17s-40.167 6 -63.5 6c-21.333 0 -41.833 -4.33301 -61.5 -13s-37.167 -22.834 -52.5 -42.501s-28.166 -45.167 -38.499 -76.5
s-16.833 -69.666 -19.5 -114.999h242v-69h-243c3.33301 -90 21.666 -157.5 54.999 -202.5s76.666 -67.5 129.999 -67.5c23.333 0 44 3.16699 62 9.5s33 13.833 45 22.5z" />
    <glyph glyph-name="afii10054" unicode="&#x405;" horiz-adv-x="428" 
d="M59 93c12.667 -8.66699 30.5 -16.8301 53.5 -24.4971s49.167 -11.5 78.5 -11.5c37.333 0 67.666 9.16699 90.999 27.5s35 47.166 35 86.499c0 26 -6.66699 48.667 -20 68s-30 37.166 -50 53.499s-41.5 32.333 -64.5 48s-44.5 33 -64.5 52s-36.667 40.833 -50 65.5
s-20 54.334 -20 89.001c0 56 16.833 97.5 50.5 124.5s77.5 40.5 131.5 40.5c33.333 0 63 -3 89 -9s47 -13.667 63 -23l-24 -66c-12 7.33301 -29.167 14 -51.5 20s-48.166 9 -77.499 9c-36 0 -62.667 -8.83301 -80 -26.5s-26 -39.834 -26 -66.501
c0 -23.333 6.66699 -44 20 -62s30 -35 50 -51s41.5 -32.167 64.5 -48.5s44.5 -34.5 64.5 -54.5s36.667 -42.667 50 -68s20 -55.333 20 -90c0 -58.667 -17.333 -104.667 -52 -138s-83.667 -50 -147 -50c-40 0 -72.833 3.66699 -98.5 11s-46.167 15.666 -61.5 24.999z" />
    <glyph glyph-name="afii10055" unicode="&#x406;" horiz-adv-x="233" 
d="M79 700h75v-700h-75v700z" />
    <glyph glyph-name="afii10056" unicode="&#x407;" horiz-adv-x="236" 
d="M19 793c0 14.667 4 26.334 12 35.001s18.667 13 32 13s23.833 -4.33301 31.5 -13s11.5 -20.334 11.5 -35.001s-3.83301 -26.167 -11.5 -34.5s-18.167 -12.5 -31.5 -12.5s-24 4.16699 -32 12.5s-12 19.833 -12 34.5zM130 793c0 14.667 3.83301 26.334 11.5 35.001
s18.167 13 31.5 13s24 -4.33301 32 -13s12 -20.334 12 -35.001s-4 -26.167 -12 -34.5s-18.667 -12.5 -32 -12.5s-23.833 4.16699 -31.5 12.5s-11.5 19.833 -11.5 34.5zM80 700h75v-700h-75v700z" />
    <glyph glyph-name="afii10057" unicode="&#x408;" horiz-adv-x="241" 
d="M93 700l75 -0.000976562v-543c0 -54.667 -8.83301 -96.167 -26.5 -124.5s-48.5 -42.5 -92.5 -42.5c-10.667 0 -23.5 1.33301 -38.5 4s-27.167 6.66699 -36.5 12l16 65c6.66699 -4 14.167 -7 22.5 -9s16.833 -3 25.5 -3c12 0 21.667 2.66699 29 8s13 12.833 17 22.5
s6.5 21.334 7.5 35.001s1.5 29.167 1.5 46.5v529z" />
    <glyph glyph-name="afii10058" unicode="&#x409;" horiz-adv-x="747" 
d="M363 631l-158 -0.00195312c-5.33301 -134 -12.333 -246 -21 -336s-22 -159.333 -40 -208c-11.333 -32 -25.333 -55.333 -42 -70s-35.667 -22 -57 -22c-19.333 0 -35.666 3.33301 -48.999 10l11 68c13.333 -4 25.666 -3.16699 36.999 2.5s22 21.167 32 46.5
c7.33301 18 14.166 42.167 20.499 72.5s12 68.833 17 115.5s9.16699 102 12.5 166s5.66602 138.667 6.99902 224h305v-272c8.66699 2 21.167 4 37.5 6s30.833 3 43.5 3c26.667 0 52.167 -3.16699 76.5 -9.5s45.833 -17.5 64.5 -33.5s33.5 -37.5 44.5 -64.5
s16.5 -61.167 16.5 -102.5c0 -40.667 -5.16699 -75.667 -15.5 -105s-25.166 -53.666 -44.499 -72.999s-42.666 -33.666 -69.999 -42.999s-58 -14 -92 -14c-7.33301 0 -16.5 0.166992 -27.5 0.5s-22.667 1 -35 2s-25 2.33301 -38 4s-24.833 4.16699 -35.5 7.5v625z
M438 65.998c8 -2 18.333 -3.33301 31 -4s25.334 -1 38.001 -1c40.667 0 73.334 13 98.001 39s37 66 37 120c0 28.667 -3.5 52.5 -10.5 71.5s-16.667 34.167 -29 45.5s-26.833 19.333 -43.5 24s-34.334 7 -53.001 7c-4.66699 0 -10.334 -0.333008 -17.001 -1l-19.5 -2
c-6.33301 -0.666992 -12.5 -1.66699 -18.5 -3s-10.333 -2.33301 -13 -3v-293z" />
    <glyph glyph-name="afii10059" unicode="&#x40a;" horiz-adv-x="781" 
d="M397 338h-258.002v-338h-75v700h75v-293h258v293h75v-293c2.66699 0.666992 7.16699 1.5 13.5 2.5s13.5 1.83301 21.5 2.5l24.5 2c8.33301 0.666992 15.5 1 21.5 1c26 0 51.167 -2.66699 75.5 -8s45.833 -15.333 64.5 -30s33.667 -35 45 -61s17 -59.333 17 -100
c0 -40 -5.33301 -74.167 -16 -102.5s-25.667 -51.5 -45 -69.5s-42.5 -31.167 -69.5 -39.5s-57.167 -12.5 -90.5 -12.5c-7.33301 0 -16.666 0.166992 -27.999 0.5s-23.166 1 -35.499 2s-25 2.5 -38 4.5s-24.833 4.33301 -35.5 7v332zM471.998 67
c7.33301 -2.66699 17.667 -4.33301 31 -5s26.666 -1 39.999 -1c40 0 72.167 11.833 96.5 35.5s36.5 61.5 36.5 113.5c0 28 -3.5 50.833 -10.5 68.5s-16.667 31.5 -29 41.5s-26.666 16.833 -42.999 20.5s-33.5 5.5 -51.5 5.5c-4.66699 0 -10.5 -0.333008 -17.5 -1l-21 -2
c-7 -0.666992 -13.333 -1.66699 -19 -3l-12.5 -3v-270z" />
    <glyph glyph-name="afii10060" unicode="&#x40b;" horiz-adv-x="605" 
d="M261 0l-75 -0.000976562v631h-172v69h419v-69h-172v-234c14 10 33 19.667 57 29s51.333 14 82 14c23.333 0 44.5 -3.16699 63.5 -9.5s35.167 -17 48.5 -32s23.666 -35 30.999 -60s11 -56.167 11 -93.5v-245h-75v233c0 50 -7.66699 85.5 -23 106.5
s-39.666 31.5 -72.999 31.5c-24 0 -47 -4.16699 -69 -12.5s-39.667 -19.166 -53 -32.499v-326z" />
    <glyph glyph-name="afii10061" unicode="&#x40c;" horiz-adv-x="493" 
d="M175 324h-36v-324h-75v700h75v-326l35 14l182 312h86l-183 -302l-35 -32l41 -40l203 -326h-95zM276 870h99v-21l-131 -97h-61z" />
    <glyph glyph-name="afii10062" unicode="&#x40e;" horiz-adv-x="448" 
d="M228 341l18.9971 -88.998h5l16 92l104 356h77l-143 -455c-14.667 -46.667 -27.5 -86 -38.5 -118s-22 -57.667 -33 -77s-23.167 -33.333 -36.5 -42s-29.666 -13 -48.999 -13c-17.333 0 -31.666 1.66699 -42.999 5s-22 8.66602 -32 15.999l22 64
c10.667 -7.33301 20.334 -11.833 29.001 -13.5s16.667 -2.5 24 -2.5c14.667 0 27 10.167 37 30.5s18.667 49.166 26 86.499l-209 519h88zM169.997 870.002c1.33301 -24.667 8.16797 -44.333 20.501 -59s29.166 -22 50.499 -22s37.833 7.33301 49.5 22s18.5 34 20.5 58
l64 -15c-5.33301 -38 -19 -67.333 -41 -88s-53.333 -31 -94 -31c-39.333 0 -71.833 9.33301 -97.5 28s-40.5 48.667 -44.5 90z" />
    <glyph glyph-name="afii10145" unicode="&#x40f;" horiz-adv-x="526" 
d="M64 0v700h75v-631h248v631h75v-700h-162l-13 -179h-47l-16 179h-160z" />
    <glyph glyph-name="afii10017" unicode="&#x410;" horiz-adv-x="473" 
d="M333 196h-198l-56 -196h-74l211 711h41l211 -711h-78zM155 263h160l-61 216l-19 105h-2l-19 -107z" />
    <glyph glyph-name="afii10018" unicode="&#x411;" horiz-adv-x="445" 
d="M64 700l312.996 -0.00195312v-69h-238v-215c9.33301 2 20.833 4 34.5 6s26.834 3 39.501 3c28 0 54.333 -3.16699 79 -9.5s46.167 -17.166 64.5 -32.499s32.833 -36.166 43.5 -62.499s16 -59.5 16 -99.5s-5.16699 -74.5 -15.5 -103.5s-24.666 -52.667 -42.999 -71
s-40.166 -32 -65.499 -41s-53.333 -13.5 -84 -13.5c-9.33301 0 -20.166 0.166992 -32.499 0.5s-25 1 -38 2s-26 2.5 -39 4.5s-24.5 4.33301 -34.5 7v694zM138.996 66.998c7.33301 -2.66699 18.499 -4.33398 33.499 -5.00098s29.167 -1 42.5 -1c36 0 65.333 11.667 88 35
s34 60.333 34 111c0 32 -3.5 57.833 -10.5 77.5s-16.5 34.834 -28.5 45.501s-26.167 17.667 -42.5 21s-33.833 5 -52.5 5c-4.66699 0 -10 -0.333008 -16 -1l-18.5 -2c-6.33301 -0.666992 -12.166 -1.66699 -17.499 -3l-12 -3v-280z" />
    <glyph glyph-name="afii10019" unicode="&#x412;" horiz-adv-x="471" 
d="M411 541c0 -17.333 -1.99902 -34.666 -5.99902 -51.999s-10.333 -33.666 -19 -48.999s-19.5 -29 -32.5 -41s-28.833 -21 -47.5 -27v-4c16 -3.33301 31.333 -8.83301 46 -16.5s27.667 -18.334 39 -32.001s20.333 -30.334 27 -50.001s10 -43.167 10 -70.5
c0 -36 -5.66699 -67.167 -17 -93.5s-26.833 -47.833 -46.5 -64.5s-42.334 -29 -68.001 -37s-52.834 -12 -81.501 -12h-32.5c-12.333 0 -25.5 0.5 -39.5 1.5s-27.833 2.33301 -41.5 4s-26.167 4.16699 -37.5 7.5v689c20 4 43.5 7.33301 70.5 10s56.167 4 87.5 4
c22.667 0 45.334 -2.16699 68.001 -6.5s43 -12.5 61 -24.5s32.5 -28.833 43.5 -50.5s16.5 -50.167 16.5 -85.5zM221.001 61c18 0 34.665 2.83594 49.998 8.50293s28.833 14.167 40.5 25.5s20.834 25.166 27.501 41.499s10 35.5 10 57.5c0 27.333 -4.16699 49.5 -12.5 66.5
s-19.166 30.167 -32.499 39.5s-28.5 15.666 -45.5 18.999s-34.5 5 -52.5 5h-67v-256c4 -1.33301 9.16699 -2.33301 15.5 -3s13.333 -1.33398 21 -2.00098s15.5 -1.16699 23.5 -1.5s15.333 -0.5 22 -0.5zM179.999 389.003c9.33301 0 19.999 0.332031 31.999 0.999023
s22 1.66699 30 3c24.667 10 45.834 26.167 63.501 48.5s26.5 49.833 26.5 82.5c0 22 -3 40.5 -9 55.5s-14.167 26.833 -24.5 35.5s-22.5 14.834 -36.5 18.501s-28.667 5.5 -44 5.5c-17.333 0 -33 -0.5 -47 -1.5s-24.667 -2.16699 -32 -3.5v-245h41z" />
    <glyph glyph-name="afii10020" unicode="&#x413;" horiz-adv-x="357" 
d="M370 631h-231v-631h-75v700h306v-69z" />
    <glyph glyph-name="afii10021" unicode="&#x414;" horiz-adv-x="542" 
d="M521 -129l-53 0.000976562l-12 129h-388l-12 -129h-53v198h58c4 7.33301 10.5 24.666 19.5 51.999s18 66.5 27 117.5s16.833 114.667 23.5 191s9.66699 166.5 9 270.5h308v-631h73v-198zM373 69.001v561.999h-161c-3.33301 -147.333 -12 -266.666 -26 -357.999
s-29.333 -159.333 -46 -204h233z" />
    <glyph glyph-name="afii10022" unicode="&#x415;" horiz-adv-x="429" 
d="M64 700h311v-69h-236v-237h217v-69h-217v-256h241v-69h-316v700z" />
    <glyph glyph-name="afii10024" unicode="&#x416;" horiz-adv-x="654" 
d="M287 700h72v-326l34 14l154 312h84l-157 -304l-33 -32l41 -40l174 -324h-93l-168 325h-36v-325h-72v337l-33 -14l-168 -323h-88l172 314l39 37l-37 35l-162 314h88l154 -314h35v314z" />
    <glyph glyph-name="afii10025" unicode="&#x417;" horiz-adv-x="434" 
d="M109 333l0.000976562 65h18c10 0 22.333 0.333008 37 1s26.334 2 35.001 4c26.667 6.66699 49.5 20.5 68.5 41.5s28.5 47.5 28.5 79.5c0 44 -10.667 74.833 -32 92.5s-48.333 26.5 -81 26.5c-26 0 -49 -2.33301 -69 -7s-36.333 -10.667 -49 -18l-20 61
c12 7.33301 31.833 14.666 59.5 21.999s58.834 11 93.501 11c22.667 0 44.667 -2.66699 66 -8s40.166 -14.5 56.499 -27.5s29.5 -30.667 39.5 -53s15 -50.166 15 -83.499c0 -34 -8.5 -65.833 -25.5 -95.5s-43.167 -51.834 -78.5 -66.501v-4
c37.333 -7.33301 66.833 -25.166 88.5 -53.499s32.5 -66.5 32.5 -114.5c0 -38.667 -5.83301 -71.667 -17.5 -99s-27.334 -49.833 -47.001 -67.5s-42.5 -30.667 -68.5 -39s-53 -12.5 -81 -12.5c-35.333 0 -64.833 2.33301 -88.5 7s-43.167 11 -58.5 19l20 68
c13.333 -7.33301 30.666 -13.333 51.999 -18s47.333 -7 78 -7c18 0 35 3.16699 51 9.5s30 15.5 42 27.5s21.5 27.167 28.5 45.5s10.5 39.5 10.5 63.5c0 43.333 -11.5 74.833 -34.5 94.5s-53.833 31.167 -92.5 34.5c-6.66699 0.666992 -12.5 1 -17.5 1h-18.5h-41z" />
    <glyph glyph-name="afii10026" unicode="&#x418;" horiz-adv-x="544" 
d="M405 458l6 92h-3l-35 -94l-259 -456h-50v700h75v-465l-7 -90h4l35 94l260 461h49v-700h-75v458z" />
    <glyph glyph-name="afii10027" unicode="&#x419;" horiz-adv-x="544" 
d="M405 458l6 92h-3l-35 -94l-259 -456h-50v700h75v-465l-7 -90h4l35 94l260 461h49v-700h-75v458zM209 870c1.33301 -24.667 8.16797 -44.333 20.501 -59s29.166 -22 50.499 -22s37.833 7.33301 49.5 22s18.5 34 20.5 58l64 -15c-5.33301 -38 -19 -67.333 -41 -88
s-53.333 -31 -94 -31c-39.333 0 -71.833 9.33301 -97.5 28s-40.5 48.667 -44.5 90z" />
    <glyph glyph-name="afii10028" unicode="&#x41a;" horiz-adv-x="493" 
d="M175 324h-36v-324h-75v700h75v-326l35 14l182 312h86l-183 -302l-35 -32l41 -40l203 -326h-95z" />
    <glyph glyph-name="afii10029" unicode="&#x41b;" horiz-adv-x="502" 
d="M363 631l-157.998 0.000976562c-5.33301 -134 -12.333 -246 -21 -336s-22 -159.333 -40 -208c-11.333 -32 -25.333 -55.333 -42 -70s-35.667 -22 -57 -22c-19.333 0 -35.666 3.33301 -48.999 10l11 69c13.333 -4 25.666 -3.33301 36.999 2s22 20.666 32 45.999
c7.33301 18 14.166 42.167 20.499 72.5s12 68.833 17 115.5s9.16699 102 12.5 166s5.66602 138.667 6.99902 224h305v-700h-75v631z" />
    <glyph glyph-name="afii10030" unicode="&#x41c;" horiz-adv-x="637" 
d="M498 460l9 106h-4l-32 -99l-141 -304h-25l-148 304l-31 99h-4l14 -106v-460h-72v700h63l169 -344l25 -82h2l24 83l160 343h66v-700h-75v460z" />
    <glyph glyph-name="afii10031" unicode="&#x41d;" horiz-adv-x="536" 
d="M397 323h-258v-323h-75v700h75v-308h258v308h75v-700h-75v323z" />
    <glyph glyph-name="afii10032" unicode="&#x41e;" horiz-adv-x="549" 
d="M43 350c0 118.667 19 208.667 57 270s96 92 174 92c42 0 77.667 -8.5 107 -25.5s53.166 -41.167 71.499 -72.5s31.833 -69.333 40.5 -114s13 -94.667 13 -150c0 -118.667 -19.167 -208.667 -57.5 -270s-96.5 -92 -174.5 -92c-41.333 0 -76.666 8.5 -105.999 25.5
s-53.333 41.167 -72 72.5s-32.167 69.333 -40.5 114s-12.5 94.667 -12.5 150zM122 350c0 -39.333 2.83398 -76.667 8.50098 -112s14.5 -66.333 26.5 -93s27.667 -48 47 -64s42.666 -24 69.999 -24c50 0 88 24 114 72s39 121.667 39 221c0 38.667 -2.83301 75.667 -8.5 111
s-14.5 66.5 -26.5 93.5s-27.667 48.5 -47 64.5s-43 24 -71 24c-49.333 0 -87 -24 -113 -72s-39 -121.667 -39 -221z" />
    <glyph glyph-name="afii10033" unicode="&#x41f;" horiz-adv-x="526" 
d="M387 631h-248v-631h-75v700h398v-700h-75v631z" />
    <glyph glyph-name="afii10034" unicode="&#x420;" horiz-adv-x="451" 
d="M64 693c21.333 6 43.998 9.99707 67.998 11.9971s47.667 3 71 3c26.667 0 53 -3 79 -9s49.5 -17 70.5 -33s38 -38 51 -66s19.5 -63.667 19.5 -107c0 -42 -6.16699 -77.667 -18.5 -107s-28.666 -53.166 -48.999 -71.499s-43.666 -31.666 -69.999 -39.999
s-53.5 -12.5 -81.5 -12.5h-13c-6 0 -12.333 0.166992 -19 0.5s-13.167 0.833008 -19.5 1.5s-10.833 1.33398 -13.5 2.00098v-266h-75v693zM206.998 638.997c-13.333 0 -26.167 -0.500977 -38.5 -1.50098s-22.166 -2.5 -29.499 -4.5v-298
c2.66699 -1.33301 6.83398 -2.16602 12.501 -2.49902l17.5 -1c6 -0.333008 11.833 -0.5 17.5 -0.5h12.5c18.667 0 36.667 2.33301 54 7s32.666 13.167 45.999 25.5s24.166 29 32.499 50s12.5 47.5 12.5 79.5c0 28 -3.83301 51.333 -11.5 70s-17.667 33.667 -30 45
s-26.833 19.333 -43.5 24s-34 7 -52 7z" />
    <glyph glyph-name="afii10035" unicode="&#x421;" horiz-adv-x="458" 
d="M430 27c-16.667 -14 -37.668 -24 -63.001 -30s-52 -9 -80 -9c-35.333 0 -68 6.66699 -98 20s-55.833 34.5 -77.5 63.5s-38.5 66.5 -50.5 112.5s-18 101.333 -18 166c0 66.667 6.83301 123 20.5 169s31.834 83.333 54.501 112s48.834 49.334 78.501 62.001
s60.167 19 91.5 19c32 0 58.5 -2.33301 79.5 -7s39.167 -10.334 54.5 -17.001l-18 -68c-13.333 7.33301 -29 13 -47 17s-38.667 6 -62 6s-45.333 -5.16699 -66 -15.5s-39 -27 -55 -50s-28.667 -53.167 -38 -90.5s-14 -83 -14 -137c0 -97.333 16.667 -170.5 50 -219.5
s77.666 -73.5 132.999 -73.5c22.667 0 43 3.16699 61 9.5s33.333 13.833 46 22.5z" />
    <glyph glyph-name="afii10036" unicode="&#x422;" horiz-adv-x="447" 
d="M433 631h-172v-631h-75v631h-172v69h419v-69z" />
    <glyph glyph-name="afii10037" unicode="&#x423;" horiz-adv-x="448" 
d="M228 341l18.9971 -88.998h5l16 92l104 356h77l-143 -455c-14.667 -46.667 -27.5 -86 -38.5 -118s-22 -57.667 -33 -77s-23.167 -33.333 -36.5 -42s-29.666 -13 -48.999 -13c-17.333 0 -31.666 1.66699 -42.999 5s-22 8.66602 -32 15.999l22 64
c10.667 -7.33301 20.334 -11.833 29.001 -13.5s16.667 -2.5 24 -2.5c14.667 0 27 10.167 37 30.5s18.667 49.166 26 86.499l-209 519h88z" />
    <glyph glyph-name="afii10038" unicode="&#x424;" horiz-adv-x="633" 
d="M279 78c-9.33301 -2 -20.332 -3.33301 -32.999 -4s-24.667 -1 -36 -1c-26 0 -49.833 5 -71.5 15s-40.5 26.167 -56.5 48.5s-28.5 51 -37.5 86s-13.5 77.5 -13.5 127.5c0 94 17.5 165.5 52.5 214.5s82.5 73.5 142.5 73.5c7.33301 0 16.5 -0.333008 27.5 -1
s19.5 -1.66699 25.5 -3v86h75v-89c9.33301 3.33301 21 5.33301 35 6s25.333 1 34 1c26 0 50 -5.5 72 -16.5s41 -27.833 57 -50.5s28.333 -51.5 37 -86.5s13 -76.5 13 -124.5c0 -49.333 -5 -92 -15 -128s-23.667 -65.667 -41 -89s-37.833 -40.833 -61.5 -52.5
s-48.834 -17.5 -75.501 -17.5c-6 0 -15 0.5 -27 1.5s-21.333 2.83301 -28 5.5v-100h-75v98zM410.001 573c-7.33301 0 -16.9971 -0.333008 -28.9971 -1s-21.667 -2.66699 -29 -6v-425c5.33301 -1.33301 12.666 -2.16602 21.999 -2.49902s17.666 -0.5 24.999 -0.5
c37.333 0 67.666 18.167 90.999 54.5s35 92.166 35 167.499c0 32 -2.5 61 -7.5 87s-12.333 48.333 -22 67s-21.667 33.167 -36 43.5s-30.833 15.5 -49.5 15.5zM226.004 138c6 0 14.832 0.167969 26.499 0.500977s21.167 2.16602 28.5 5.49902v425
c-6.66699 1.33301 -14.667 2.33301 -24 3s-17.666 1 -24.999 1c-36.667 0 -66.5 -18.333 -89.5 -55s-34.5 -92.667 -34.5 -168c0 -66 10.167 -117.833 30.5 -155.5s49.5 -56.5 87.5 -56.5z" />
    <glyph glyph-name="afii10039" unicode="&#x425;" horiz-adv-x="500" 
d="M203 356l-168 344h90l109 -237l20 -59l20 59l115 237h83l-174 -337l182 -363h-88l-121 251l-23 62l-21 -62l-124 -251h-84z" />
    <glyph glyph-name="afii10040" unicode="&#x426;" horiz-adv-x="551" 
d="M530 -129h-52l-13 129h-401v700h75v-631h242v631h75v-631h74v-198z" />
    <glyph glyph-name="afii10041" unicode="&#x427;" horiz-adv-x="487" 
d="M130 700l-0.000976562 -244c0 -48.667 8.33301 -82.5 25 -101.5s41 -28.5 73 -28.5c23.333 0 45.833 4.33301 67.5 13s39.167 20 52.5 34v327h75v-700h-75v300c-13.333 -10 -32 -19.667 -56 -29s-50.667 -14 -80 -14c-21.333 0 -41.5 2.66699 -60.5 8
s-35.667 14.833 -50 28.5s-25.666 32.167 -33.999 55.5s-12.5 53.333 -12.5 90v261h75z" />
    <glyph glyph-name="afii10042" unicode="&#x428;" horiz-adv-x="699" 
d="M64 0v700h75v-631h173v631h75v-631h173v631h75v-700h-571z" />
    <glyph glyph-name="afii10043" unicode="&#x429;" horiz-adv-x="731" 
d="M64 0v700h75v-631h173v631h75v-631h173v631h75v-631h75v-198h-53l-12 129h-581z" />
    <glyph glyph-name="afii10044" unicode="&#x42a;" horiz-adv-x="513" 
d="M128 631l-129.005 -0.000976562v69h204v-272c4 0.666992 9.33301 1.66699 16 3s13.834 2.33301 21.501 3l23.5 2c8 0.666992 15 1 21 1c26 0 51.167 -3.16699 75.5 -9.5s45.833 -17.5 64.5 -33.5s33.667 -37.5 45 -64.5s17 -61.5 17 -103.5
c0 -41.333 -5.33301 -76.666 -16 -105.999s-25.667 -53.5 -45 -72.5s-42.666 -33 -69.999 -42s-57.666 -13.5 -90.999 -13.5c-7.33301 0 -16.666 0.166992 -27.999 0.5s-23.166 1 -35.499 2s-25 2.33301 -38 4s-24.833 4.16699 -35.5 7.5v625zM272.995 60.999
c40 0 72.501 12.6689 97.501 38.002s37.5 65.666 37.5 120.999c0 29.333 -3.66699 53.666 -11 72.999s-17.166 34.5 -29.499 45.5s-26.833 18.667 -43.5 23s-34 6.5 -52 6.5c-4.66699 0 -10.5 -0.333008 -17.5 -1l-20.5 -2c-6.66699 -0.666992 -12.834 -1.66699 -18.501 -3
l-12.5 -3v-292c7.33301 -2 17.666 -3.5 30.999 -4.5s26.333 -1.5 39 -1.5z" />
    <glyph glyph-name="afii10045" unicode="&#x42b;" horiz-adv-x="622" 
d="M483 700h75v-700h-75v700zM64 700l74.998 0.000976562v-272c6 1.33301 16 3.16602 30 5.49902s27.667 3.5 41 3.5c26 0 50.833 -3 74.5 -9s44.5 -16.833 62.5 -32.5s32.333 -37.167 43 -64.5s16 -62 16 -104c0 -81.333 -18.833 -140.833 -56.5 -178.5
s-90.167 -56.5 -157.5 -56.5c-15.333 0 -35.166 0.833008 -59.499 2.5s-47.166 5.5 -68.499 11.5v694zM198.998 61.001c40 0 71.334 13.001 94.001 39.001s34 66 34 120c0 29.333 -3.33301 53.5 -10 72.5s-15.834 34.167 -27.501 45.5s-25.5 19.166 -41.5 23.499
s-33.333 6.5 -52 6.5c-9.33301 0 -19.833 -1 -31.5 -3s-20.167 -4 -25.5 -6v-291c13.333 -4.66699 33.333 -7 60 -7z" />
    </font>
</defs>
</svg>
